#TITLE:ANASTHASIA;
#SUBTITLE:(Out Of History Mix);
#ARTIST:T99;
#TITLETRANSLIT:;
#SUBTITLETRANSLIT:;
#ARTISTTRANSLIT:;
#GENRE:;
#CREDIT:;
#BANNER:;
#BACKGROUND:;
#LYRICSPATH:;
#CDTITLE:;
#MUSIC:ANASTHASIA (Out Of History Mix).ogg;
#OFFSET:-0.060000;
#SAMPLESTART:59.640087;
#SAMPLELENGTH:12.000000;
#SELECTABLE:YES;
#BPMS:0.000000=128.779999
;
#STOPS:
;
#BGCHANGES:;
#KEYSOUNDS:;
#ATTACKS:;

//---------------dance-single - ----------------
#NOTES:
     dance-single:
     :
     Hard:
     11:
     0.444986,0.507622,0.621324,0.265098,0.024853,376.000000,301.000000,75.000000,32.000000,0.000000,0.000000,0.444986,0.507622,0.621324,0.265098,0.024853,376.000000,301.000000,75.000000,32.000000,0.000000,0.000000:
0000
0000
0000
0000
,
0000
0000
0000
0000
,
0000
0000
0000
0000
,
0000
0000
0000
0000
,
0000
0000
0000
0000
,
1000
1000
1000
0000
0100
0000
0100
0000
,
0001
0001
0001
0000
0010
0000
0010
0000
,
1000
1000
1000
0000
0100
0000
0100
0000
,
0001
0001
0001
0000
0010
0000
0010
0000
,
1000
1000
1000
0000
0100
0000
0100
0000
,
0001
0001
0001
0000
0010
0000
0010
0000
,
1000
0100
0001
0010
,
1000
0100
0001
0010
,
1000
1000
1000
0000
0100
0000
0100
0000
,
0001
0001
0001
0000
0010
0000
0010
0000
,
1000
0100
0001
0010
,
1000
0100
0001
0010
,
0102
0100
0103
0000
1000
0100
1000
0000
,
2100
0100
3100
0000
0001
0100
0001
0000
,
0102
0100
0013
0000
0011
0000
1100
0000
,
2010
0010
3100
0000
1010
0000
0101
0000
,
0201
0010
0310
0000
1010
0000
0110
0000
,
0120
1000
1030
0000
0101
0000
1001
0000
,
2001
0010
3100
0000
1001
0000
0110
0000
,
1002
0100
0013
0000
1001
0000
0110
0000
,
0102
0100
0103
0000
1000
0100
1000
0000
,
2100
0100
3100
0000
0001
0100
0001
0000
,
0102
0100
0013
0000
0011
0000
1100
0000
,
2010
0010
3100
0000
1010
0000
0101
0000
,
0201
0010
0310
0000
1010
0000
0110
0000
,
0120
1000
1030
0000
0101
0000
1001
0000
,
2001
0010
3100
0000
1001
0000
0110
0000
,
1000
0000
0000
0000
0100
0000
0000
0000
1000
0000
0000
0000
0100
0000
0000
0000
1000
0000
0000
0000
0000
0000
0000
0000
0100
0000
0000
0000
1000
0000
0000
0000
0100
0000
0000
0000
1000
0000
0000
0100
0000
0000
0000
0000
0000
0000
0000
0000
,
1000
1000
1000
0000
0100
0000
0100
0000
,
0001
0001
0001
0000
0010
0000
0010
0000
,
1000
1000
1000
0000
0100
0000
0100
0000
,
0001
0001
0001
0000
0010
0000
0010
0000
,
1000
1000
1000
0000
0100
0000
0100
0000
,
0001
0001
0001
0000
0010
0000
0010
0000
,
1000
0100
0001
0010
,
1000
0100
0001
0010
,
1000
1000
1000
0000
0100
0000
0100
0000
,
0001
0001
0001
0000
0010
0000
0010
0000
,
1000
0100
0001
0010
,
1000
0100
0001
0010
,
1000
1000
1000
0000
0100
0000
0100
0000
,
0001
0001
0001
0000
0010
0000
0010
0000
,
1000
1000
1000
0000
0100
0000
0100
0000
,
0001
0001
0001
0000
0010
0000
0010
0000
,
0102
0100
0103
0000
1000
0100
1000
0000
,
2100
0100
3100
0000
0001
0100
0001
0000
,
0102
0100
0013
0000
0011
0000
1100
0000
,
2010
0010
3100
0000
1010
0000
0101
0000
,
0201
0010
0310
0000
1010
0000
0110
0000
,
0120
1000
1030
0000
0101
0000
1001
0000
,
2001
0010
3100
0000
1001
0000
0110
0000
,
1002
0100
0013
0000
1001
0000
0110
0000
,
0102
0100
0103
0000
1000
0100
1000
0000
,
2100
0100
3100
0000
0001
0100
0001
0000
,
0102
0100
0013
0000
0011
0000
1100
0000
,
2010
0010
3100
0000
1010
0000
0101
0000
,
0201
0010
0310
0000
1010
0000
0110
0000
,
0120
1000
1030
0000
0101
0000
1001
0000
,
2001
0010
3100
0000
1001
0000
0110
0000
,
2002
0000
3003
0000
;

//---------------dance-single - ----------------
#NOTES:
     dance-single:
     :
     Easy:
     5:
     0.297052,0.318118,0.240245,0.107696,0.000000,251.000000,222.000000,29.000000,13.000000,0.000000,0.000000,0.297052,0.318118,0.240245,0.107696,0.000000,251.000000,222.000000,29.000000,13.000000,0.000000,0.000000:
0000
0000
0000
0000
,
0000
0000
0000
0000
,
0000
0000
0000
0000
,
0000
0000
0000
0000
,
0000
0000
0000
0000
,
1000
0100
0001
1100
,
0001
0100
1000
0101
,
1000
0100
0001
1100
,
0001
0100
1000
0101
,
1000
0100
0001
1100
,
0001
0100
1000
0101
,
1000
0100
0001
1100
,
0001
0100
1000
0101
,
1000
0100
0001
1100
,
0001
0100
1000
0101
,
1000
0100
0001
1100
,
0001
0100
1000
0101
,
1000
0100
1000
1000
,
0001
0100
0001
0001
,
1000
0100
2000
3000
,
0001
0100
0002
0003
,
0100
0100
0001
0100
,
0010
0010
1000
0010
,
0100
0001
0200
0300
,
0010
1000
0020
0030
,
1000
0010
1000
1000
,
0001
0010
0001
0001
,
1000
0010
2000
3000
,
0001
0010
0002
0003
,
0010
1000
0010
0010
,
0100
0001
0100
0100
,
0001
0010
1000
0100
,
0002
0000
0000
0003
,
1000
0100
0001
1100
,
0001
0100
1000
0101
,
1000
0100
0001
1100
,
0001
0100
1000
0101
,
1000
0100
0001
1100
,
0001
0100
1000
0101
,
1000
0100
0001
1100
,
0001
0100
1000
0101
,
1000
0100
0001
1100
,
0001
0100
1000
0101
,
1000
0100
0001
1100
,
0001
0100
1000
0101
,
1000
0100
0001
1100
,
0001
0100
1000
0101
,
1000
0100
0001
1100
,
0001
0100
1000
0101
,
1000
0100
1000
1000
,
0001
0100
0001
0001
,
1000
0100
2000
3000
,
0001
0100
0002
0003
,
0100
0100
0001
0100
,
0010
0010
1000
0010
,
0100
0001
0200
0300
,
0010
1000
0020
0030
,
1000
0010
1000
1000
,
0001
0010
0001
0001
,
1000
0010
2000
3000
,
0001
0010
0002
0003
,
0010
1000
0010
0010
,
0100
0001
0100
0100
,
0001
0010
1000
0100
,
1001
0000
0000
0000
;

//---------------dance-single - ----------------
#NOTES:
     dance-single:
     :
     Medium:
     9:
     0.417766,0.371137,0.513628,0.024853,0.000000,353.000000,291.000000,62.000000,3.000000,0.000000,0.000000,0.417766,0.371137,0.513628,0.024853,0.000000,353.000000,291.000000,62.000000,3.000000,0.000000,0.000000:
0000
0000
0000
0000
,
0000
0000
0000
0000
,
0000
0000
0000
0000
,
0000
0000
0000
0000
,
0000
0000
0000
0000
,
1000
0100
1000
0100
1000
0000
1000
0000
,
0001
0100
0001
0100
0001
0000
0001
0000
,
1000
0010
1000
0010
1000
0000
1000
0000
,
0001
0010
0001
0010
0001
0000
0001
0000
,
1000
0100
1000
0100
1000
0000
1000
0000
,
0001
0010
0001
0010
0001
0000
0001
0000
,
1000
0100
1000
0100
1000
0000
1000
0000
,
0001
0100
0001
0100
0001
0000
0001
0000
,
1000
0010
1000
0010
1000
0000
1000
0000
,
0001
0100
0001
0100
0010
0000
0010
0000
,
1000
0100
1000
0100
0010
0000
0010
0000
,
0001
0100
0001
0100
0010
0000
1000
0000
,
1000
0001
1001
1100
,
1000
0010
0101
1001
,
1000
0100
1001
1010
,
0100
0010
0110
0101
,
0001
0010
1100
1001
,
1000
0010
0110
1010
,
1000
0100
0101
0011
,
0001
1000
1010
1100
,
1000
0100
1010
0101
,
0001
1000
1001
0110
,
0100
0010
0110
1001
,
1000
0010
0101
1100
,
0001
0100
1010
0011
,
1000
0100
0011
1100
,
1000
0001
1010
0101
,
2002
3000
0200
0300
,
0013
0001
0010
0001
0010
0000
0010
0000
,
0001
1000
0001
1000
0001
0000
0001
0000
,
1000
0010
1000
0010
1000
0000
1000
0000
,
0100
1000
0100
1000
0100
0000
0100
0000
,
1000
0010
1000
0010
0100
0000
0100
0000
,
0001
0100
0001
0100
0010
0000
0010
0000
,
1000
0100
1000
0100
1000
0000
1000
0000
,
0001
0100
0001
0100
0001
0000
0001
0000
,
0010
0001
0100
0001
0010
0000
0001
0000
,
0100
0010
0100
0001
0100
0000
0010
0000
,
1000
0100
1000
0010
1000
0000
0100
0000
,
1000
0001
0100
0001
1000
0000
0100
0000
,
1000
0001
1000
0010
1000
0000
0001
0000
,
0100
0001
0100
0001
0010
0000
0001
0000
,
0100
0010
0100
0001
0100
0000
0010
0000
,
1000
0100
1000
0010
0100
0000
0001
0000
,
1000
0001
1001
1100
,
1000
0010
0101
1001
,
1000
0100
1001
1010
,
0100
0010
0110
0101
,
0001
0010
1100
1001
,
1000
0010
0110
1010
,
1000
0100
0101
0011
,
0001
1000
1010
1100
,
1000
0100
1010
0101
,
0001
1000
1001
0110
,
0100
0010
0110
1001
,
1000
0010
0101
1100
,
0001
0100
1010
0011
,
1000
0100
0011
1100
,
1000
0001
1010
0101
,
1001
0000
0000
0000
;

//---------------dance-single - ----------------
#NOTES:
     dance-single:
     :
     Beginner:
     2:
     0.164503,0.212079,0.000000,0.132549,0.000000,139.000000,139.000000,0.000000,16.000000,0.000000,0.000000,0.164503,0.212079,0.000000,0.132549,0.000000,139.000000,139.000000,0.000000,16.000000,0.000000,0.000000:
// measure 0
0000
0000
0000
0000
,  // measure 1
0000
0000
0000
0000
,  // measure 2
0000
0000
0000
0000
,  // measure 3
0000
0000
0000
0000
,  // measure 4
0000
0000
0000
0000
,  // measure 5
1000
1000
1000
0000
,  // measure 6
1000
1000
1000
0000
,  // measure 7
0001
0001
0001
0000
,  // measure 8
0001
0001
0001
0000
,  // measure 9
0100
0100
0100
0000
,  // measure 10
0100
0100
0100
0000
,  // measure 11
0010
0010
0010
0000
,  // measure 12
0010
0010
0010
0000
,  // measure 13
1000
1000
1000
0000
,  // measure 14
0001
0001
0001
0000
,  // measure 15
0100
0100
0100
0000
,  // measure 16
0010
0010
0010
0000
,  // measure 17
2000
0000
3000
0000
,  // measure 18
2000
0000
3000
0000
,  // measure 19
0002
0000
0003
0000
,  // measure 20
0002
0000
0003
0000
,  // measure 21
1000
1000
0000
0000
,  // measure 22
0001
0001
0000
0000
,  // measure 23
1000
1000
0000
0000
,  // measure 24
0001
0001
0000
0000
,  // measure 25
0200
0000
0300
0000
,  // measure 26
0020
0000
0030
0000
,  // measure 27
0200
0000
0300
0000
,  // measure 28
0020
0000
0030
0000
,  // measure 29
0100
0100
0100
0000
,  // measure 30
0010
0010
0010
0000
,  // measure 31
0100
0100
0100
0000
,  // measure 32
0010
0010
0010
0000
,  // measure 33
1000
1000
1000
0000
,  // measure 34
1000
1000
1000
0000
,  // measure 35
0001
0001
0001
0000
,  // measure 36
0001
0001
0001
0000
,  // measure 37
1000
1000
1000
0000
,  // measure 38
1000
1000
1000
0000
,  // measure 39
0001
0001
0001
0000
,  // measure 40
0001
0001
0001
0000
,  // measure 41
0100
0100
0100
0000
,  // measure 42
0100
0100
0100
0000
,  // measure 43
0010
0010
0010
0000
,  // measure 44
0010
0010
0010
0000
,  // measure 45
1000
1000
1000
0000
,  // measure 46
0001
0001
0001
0000
,  // measure 47
0100
0100
0100
0000
,  // measure 48
0010
0010
0010
0000
,  // measure 49
2000
0000
3000
0000
,  // measure 50
2000
0000
3000
0000
,  // measure 51
0002
0000
0003
0000
,  // measure 52
0002
0000
0003
0000
,  // measure 53
1000
1000
0000
0000
,  // measure 54
0001
0001
0000
0000
,  // measure 55
1000
1000
0000
0000
,  // measure 56
0001
0001
0000
0000
,  // measure 57
0200
0000
0300
0000
,  // measure 58
0020
0000
0030
0000
,  // measure 59
0200
0000
0300
0000
,  // measure 60
0020
0000
0030
0000
,  // measure 61
0100
0100
0100
0000
,  // measure 62
0010
0010
0010
0000
,  // measure 63
0100
0100
0100
0100
,  // measure 64
0100
0000
0000
0000
;
