#TITLE:AMERICA;
#SUBTITLE:;
#ARTIST:MAGIC MARMALADE;
#TITLETRANSLIT:;
#SUBTITLETRANSLIT:;
#ARTISTTRANSLIT:;
#GENRE:;
#CREDIT:;
#BANNER:;
#BACKGROUND:DDR CD-bg.JPG;
#LYRICSPATH:;
#CDTITLE:;
#MUSIC:America.ogg;
#OFFSET:-0.620000;
#SAMPLESTART:58.799938;
#SAMPLELENGTH:12.000000;
#SELECTABLE:YES;
#BPMS:0.000000=130.000000
;
#STOPS:
;
#BGCHANGES:;
#KEYSOUNDS:;
#ATTACKS:;

//---------------dance-single - ----------------
#NOTES:
     dance-single:
     :
     Hard:
     14:
     0.621235,0.736251,0.367890,0.075465,0.594284,461.000000,422.000000,39.000000,8.000000,0.000000,0.000000,0.621235,0.736251,0.367890,0.075465,0.594284,461.000000,422.000000,39.000000,8.000000,0.000000,0.000000:
0000
0000
0000
0000
,
0000
0000
0000
0000
,
0000
0000
0000
0000
,
0000
0000
0000
0000
0000
0000
0000
0000
0000
0000
0000
1000
0001
0100
0010
0000
,
0010
0100
0001
0000
1000
0100
0000
1000
0010
0000
0100
0001
0000
0100
0001
0000
,
0100
0010
0000
0100
0010
0000
1000
0010
1000
0000
1000
0100
0000
0001
0100
0000
,
1000
0000
1000
0100
0000
0001
0100
0000
1000
0100
0000
0001
0100
0000
1000
0100
,
0000
0001
0100
0000
1000
0100
0000
0100
1000
0100
1000
0010
0100
0010
0100
0001
,
0100
0010
0100
0000
0001
0100
0000
0010
0100
0000
1000
0100
0000
0010
0100
0000
,
0001
0100
0000
0010
0100
0000
0001
0010
0001
0000
1000
0100
0000
1000
0010
1000
,
0100
0000
1000
0010
0000
0100
0001
0000
0100
0001
0000
0100
0010
0000
0100
0001
,
0000
1000
0100
0000
1000
0001
0000
1000
0001
0100
0010
0100
0010
0100
0001
0100
,
0001
1000
0100
0000
1000
0100
0000
0100
0010
0000
0010
0001
0000
0001
0100
0000
,
0100
0010
0000
0010
1000
0000
1000
0001
1000
0001
0100
0001
0100
0010
0100
0010
,
0100
0000
0001
0010
0000
0100
1000
0000
1000
0001
0000
1000
0010
0000
0100
0010
,
0100
0001
0000
0101
0000
0100
0010
0000
0010
1000
0000
1000
0010
0000
0010
1000
,
0100
1000
0001
1000
0010
0100
0001
0100
,
0010
1000
0001
1000
0100
1000
0010
0100
,
0001
0100
0010
1000
0100
1000
0100
0010
,
0001
0100
0001
0100
0010
0100
0010
1000
,
1001
0000
0110
0000
1001
0000
0110
1001
,
0220
0000
0000
0330
,
0110
0000
1001
0000
0110
0000
1001
0110
,
2002
0000
0000
3003
,
1000
0100
1100
0011
,
0001
0100
0011
1100
,
1000
0001
1010
0101
,
0001
1000
0101
1010
,
1000
0001
0101
1100
,
1000
0001
1100
0101
,
0001
1000
1010
0011
,
0001
0000
0000
0000
1000
0000
0000
0000
0000
0000
0000
1000
0001
0100
0010
0000
,
0010
0100
0001
0000
1000
0100
0000
1000
0010
0000
0100
0001
0000
0100
0001
0000
,
0100
0010
0000
0100
0010
0000
1000
0010
1000
0000
1000
0100
0000
0001
0100
0000
,
1000
0000
1000
0100
0000
0001
0100
0000
1000
0100
0000
0001
0100
0000
1000
0100
,
0000
0001
0100
0000
1000
0100
0000
0100
1000
0100
1000
0010
0100
0010
0100
0001
,
0100
0010
0100
0000
0001
0100
0000
0010
0100
0000
1000
0100
0000
0010
0100
0000
,
0001
0100
0000
0010
0100
0000
0001
0010
0001
0000
1000
0100
0000
1000
0010
1000
,
0100
0000
1000
0010
0000
0100
0001
0000
0100
0001
0000
0100
0010
0000
0100
0001
,
0100
0001
0100
0001
0100
0010
0100
0010
1000
0010
1000
0010
1000
0100
1000
0100
,
1000
0000
0000
0001
0100
0000
0010
0000
1000
0000
0001
0000
0001
0000
0100
0000
,
0001
0000
0000
1000
0100
0000
1000
0000
1000
0000
0001
0000
0100
0000
0010
0000
,
0100
0000
0000
0001
0010
0000
0001
0000
0001
0000
0100
0000
0010
0000
1000
0000
,
0100
0000
0000
0100
1000
0000
1000
0000
0010
0000
0100
0000
0001
0000
0100
0000
,
0001
0000
0000
1000
0001
0000
0100
0000
0010
0000
0100
0000
0001
0000
0001
0000
,
1000
0000
0000
0100
1000
0000
1000
0000
0010
0000
0100
0000
0001
0000
0001
0000
,
0100
0000
0000
0100
0010
0000
0010
0000
1000
0000
1000
0000
0100
0000
0100
0000
,
1000
0000
0000
0001
0100
0000
0001
0000
1000
0000
0001
0000
0100
0000
0001
0000
,
0100
0010
0100
0010
0100
0010
0100
0000
,
0001
1000
0001
1000
0001
1000
0001
0000
,
1000
0100
1000
0100
1000
0100
1000
0000
,
0001
0010
0001
0010
0001
0010
0001
0000
,
0110
0000
1001
0000
0110
0000
1001
0110
,
2002
0000
0000
3003
,
1001
0000
0110
0000
1001
0000
0110
1001
,
0220
0000
0000
0330
;

//---------------dance-single - ----------------
#NOTES:
     dance-single:
     :
     Medium:
     9:
     0.358457,0.394420,0.113197,0.075465,0.000000,266.000000,254.000000,12.000000,8.000000,0.000000,0.000000,0.358457,0.394420,0.113197,0.075465,0.000000,266.000000,254.000000,12.000000,8.000000,0.000000,0.000000:
0000
0000
0000
0000
,
0000
0000
0000
0000
,
0000
0000
0000
0000
,
0000
0000
0000
0000
,
1000
1000
1000
0000
1000
1000
1000
0000
,
0100
0010
0001
0010
,
0001
0001
0001
0000
0001
0001
0001
0000
,
0100
0010
0100
0001
,
0100
0100
0100
0000
0100
0100
0100
0000
,
0010
1000
0010
0100
,
0010
0010
0010
0000
0010
0010
0010
0000
,
1000
0100
0001
0100
,
1000
0001
1000
0000
0001
1000
0001
0000
,
1000
0100
0010
0001
,
0100
0010
0100
0000
0010
0100
0010
0000
,
0100
0010
1000
0001
,
1000
0001
0100
0001
0100
0001
0100
0000
,
0001
1000
0100
1000
0100
1000
0100
0000
,
1000
0010
0100
0001
,
0100
0010
1000
0100
,
1000
0100
1000
0010
1000
0100
1000
0000
,
2000
0001
0001
3001
,
0001
0100
0001
0010
0001
0100
0001
0000
,
1002
1000
1000
1003
,
1001
0100
1001
0100
,
0001
1000
0010
1000
,
1001
0100
1001
0100
,
1000
0010
0100
0001
,
1001
0100
1001
0100
,
0010
1000
0001
0100
,
1001
0100
1001
0100
,
0220
0000
0000
0330
,
1000
1000
1000
0000
1000
1000
1000
0000
,
0100
0010
0001
0010
,
0001
0001
0001
0000
0001
0001
0001
0000
,
0100
0010
0100
0001
,
0100
0100
0100
0000
0100
0100
0100
0000
,
0010
1000
0010
0100
,
0010
0010
0010
0000
0010
0010
0010
0000
,
2002
0000
0000
3003
,
0010
0010
0010
0000
0010
0010
0010
0000
,
1000
0100
0001
0100
,
1000
0001
1000
0000
0001
1000
0001
0000
,
1000
0100
0010
0001
,
0100
0010
0100
0000
0010
0100
0010
0000
,
0100
0010
1000
0001
,
1000
1000
1000
0000
0001
0001
0001
0000
,
0100
0010
1000
0001
,
1000
0001
0100
0001
0100
0001
0100
0000
,
0001
1000
0100
1000
0100
1000
0100
0000
,
1000
0010
0100
0001
,
0100
0010
1000
0100
,
1000
0100
1000
0010
1000
0100
1000
0000
,
2000
0001
0001
3001
,
0001
0100
0001
0010
0001
0100
0001
0000
,
1002
1000
1000
1003
;

//---------------dance-single - ----------------
#NOTES:
     dance-single:
     :
     Easy:
     6:
     0.269516,0.289242,0.179228,0.094331,0.000000,200.000000,181.000000,19.000000,10.000000,0.000000,0.000000,0.269516,0.289242,0.179228,0.094331,0.000000,200.000000,181.000000,19.000000,10.000000,0.000000,0.000000:
// measure 0
0000
0000
0000
0000
,  // measure 1
0000
0000
0000
0000
,  // measure 2
0000
0000
0000
0000
,  // measure 3
0000
0000
0000
0000
,  // measure 4
0001
0100
0010
1000
,  // measure 5
0010
0100
0010
0100
,  // measure 6
0001
0100
1000
0100
,  // measure 7
0001
0100
1000
0100
,  // measure 8
0001
1000
0100
1000
,  // measure 9
0010
0100
0001
0100
,  // measure 10
0010
1000
0100
1000
,  // measure 11
0001
0100
0001
1000
,  // measure 12
0100
1000
0001
0100
,  // measure 13
0010
0100
0001
1000
,  // measure 14
0100
1000
0001
0001
,  // measure 15
0220
0000
0000
0330
,  // measure 16
1001
1000
0001
0100
,  // measure 17
0001
1000
0010
1000
,  // measure 18
1001
0001
0100
0010
,  // measure 19
1000
0100
1000
0001
,  // measure 20
0100
0100
0100
0100
,  // measure 21
0202
0000
0000
0303
,  // measure 22
0010
0010
0010
0010
,  // measure 23
2020
0000
0000
3030
,  // measure 24
1001
0000
1001
0000
,  // measure 25
0100
0100
0100
0000
,  // measure 26
1001
0000
1001
0000
,  // measure 27
0010
0010
0010
0000
,  // measure 28
0110
0000
0110
0000
,  // measure 29
1000
1000
1000
0000
,  // measure 30
0110
0000
0110
0000
,  // measure 31
0001
0001
0001
0000
,  // measure 32
0001
0100
0010
1000
,  // measure 33
0010
0100
0010
0100
,  // measure 34
0001
0100
1000
0100
,  // measure 35
0001
0100
1000
0100
,  // measure 36
0001
1000
0100
1000
,  // measure 37
0010
0100
0001
0100
,  // measure 38
0010
1000
0100
1000
,  // measure 39
0001
0100
0001
1000
,  // measure 40
0100
1000
0001
0100
,  // measure 41
0010
0100
0001
1000
,  // measure 42
0100
1000
0001
0001
,  // measure 43
0110
0010
0100
0001
,  // measure 44
1001
1000
0001
0100
,  // measure 45
0001
1000
0010
1000
,  // measure 46
1001
0001
0100
0010
,  // measure 47
1000
0100
1000
0001
,  // measure 48
1001
0100
0001
0100
,  // measure 49
0010
1000
0010
1000
,  // measure 50
0100
1000
0001
0100
,  // measure 51
0001
1000
0010
0010
,  // measure 52
0100
0100
0100
0100
,  // measure 53
0202
0000
0000
0303
,  // measure 54
0010
0010
0010
0010
,  // measure 55
2020
0000
0000
3030
;

//---------------dance-single - ----------------
#NOTES:
     dance-single:
     :
     Beginner:
     3:
     0.140149,0.181587,0.113197,0.000000,0.000000,104.000000,92.000000,12.000000,0.000000,0.000000,0.000000,0.140149,0.181587,0.113197,0.000000,0.000000,104.000000,92.000000,12.000000,0.000000,0.000000,0.000000:
// measure 0
0000
0000
0000
0000
,  // measure 1
0000
0000
0000
0000
,  // measure 2
0000
0000
0000
0000
,  // measure 3
0000
0000
0000
0000
,  // measure 4
1000
0000
1000
0000
,  // measure 5
1000
0000
1000
0000
,  // measure 6
0001
0000
0001
0000
,  // measure 7
0001
0000
0001
0000
,  // measure 8
0100
0000
0100
0000
,  // measure 9
0100
0000
0100
0000
,  // measure 10
0010
0000
0010
0000
,  // measure 11
0010
0000
0010
0000
,  // measure 12
1000
0000
1000
0000
,  // measure 13
0001
0000
0001
0000
,  // measure 14
0100
0000
0100
0000
,  // measure 15
0010
0000
0010
0000
,  // measure 16
1000
1000
0000
0000
,  // measure 17
0100
0100
0000
0000
,  // measure 18
0010
0010
0000
0000
,  // measure 19
0001
0001
0000
0000
,  // measure 20
1001
0000
0000
0000
,  // measure 21
1001
0000
0000
0000
,  // measure 22
1001
0000
0000
0000
,  // measure 23
1001
0000
0000
0000
,  // measure 24
1000
1000
1000
1000
,  // measure 25
1000
0000
0000
0000
,  // measure 26
0001
0001
0001
0001
,  // measure 27
0001
0000
0000
0000
,  // measure 28
0100
0100
0100
0100
,  // measure 29
0100
0000
0000
0000
,  // measure 30
0010
0010
0010
0010
,  // measure 31
0010
0000
0000
0000
,  // measure 32
1000
0000
1000
0000
,  // measure 33
1000
0000
1000
0000
,  // measure 34
0001
0000
0001
0000
,  // measure 35
0001
0000
0001
0000
,  // measure 36
0100
0000
0100
0000
,  // measure 37
0100
0000
0100
0000
,  // measure 38
0010
0000
0010
0000
,  // measure 39
0010
0000
0010
0000
,  // measure 40
1001
0000
0000
0000
,  // measure 41
0100
0000
0000
0000
,  // measure 42
1001
0000
0000
0000
,  // measure 43
0100
0000
0000
0000
,  // measure 44
1001
0000
0000
0000
,  // measure 45
0010
0000
0000
0000
,  // measure 46
1001
0000
0000
0000
,  // measure 47
0010
0000
0000
0000
,  // measure 48
1000
1000
0000
0000
,  // measure 49
0100
0100
0000
0000
,  // measure 50
0010
0010
0000
0000
,  // measure 51
0001
0001
0000
0000
,  // measure 52
1001
0000
0000
0000
,  // measure 53
1001
0000
0000
0000
,  // measure 54
1001
0000
0000
0000
,  // measure 55
1001
0000
0000
0000
;
