#TITLE:AM-3P;
#SUBTITLE:(AM EAST mix);
#ARTIST:KTz;
#TITLETRANSLIT:;
#SUBTITLETRANSLIT:;
#ARTISTTRANSLIT:;
#GENRE:Techno;
#CREDIT:;
#BANNER:AM-3P (AM EAST mix).png;
#BACKGROUND:AM-3P (AM EAST mix)-bg.png;
#LYRICSPATH:;
#CDTITLE:;
#MUSIC:AM-3P (AM EAST mix).ogg;
#OFFSET:-0.001167;
#SAMPLESTART:49.710999;
#SAMPLELENGTH:15.000000;
#SELECTABLE:YES;
#DISPLAYBPM:140.000000;
#BPMS:0.000000=140.078003
,4.000000=140.009003
;
#STOPS:
;
#BGCHANGES:;
#KEYSOUNDS:;
#ATTACKS:;

//---------------dance-single - ----------------
#NOTES:
     dance-single:
     :
     Hard:
     10:
     0.435647,0.493886,0.092100,0.040933,0.301883,298.000000,289.000000,9.000000,4.000000,0.000000,0.000000,0.435647,0.493886,0.092100,0.040933,0.301883,298.000000,289.000000,9.000000,4.000000,0.000000,0.000000:
0000
0000
0000
0000
,
0000
0000
0000
0000
,
0000
0000
0000
0000
,
1000
0100
0010
0001
,
0001
0100
0010
1000
,
1000
0100
0010
0000
1000
0100
0010
0000
,
1000
0010
0100
0001
0010
0100
1000
0000
,
0001
0010
0100
0000
0001
0010
0100
0000
,
1000
0010
0001
0100
1000
0100
0010
0000
,
1000
0000
0000
0100
0000
0000
0001
0000
0000
0000
0000
0000
0100
0000
0000
0000
,
1000
0000
0000
0010
0000
0000
0100
0000
0000
0000
0000
0000
0001
0000
0000
0000
,
0010
0000
0000
0001
0000
0000
0100
0000
0001
0000
0000
0010
0000
0000
0100
0000
,
1000
0000
0000
0110
,
1000
1000
1000
0000
0001
0001
0001
0000
,
1000
0010
0100
0001
1000
0100
0010
0000
,
0001
1000
0100
0000
0001
1000
0100
0000
,
0010
0202
0000
0000
0303
0000
1001
0000
,
0010
0100
0001
0000
0010
0100
1000
0000
,
0001
0100
0010
0001
0010
1000
0100
0000
,
0001
0010
1000
0000
1000
0010
0001
0000
,
1001
1001
0010
0010
0110
0110
0001
0000
,
0010
0000
0000
1000
0000
0000
0100
0000
0000
1000
0000
0000
0010
0000
0100
0000
,
0001
0000
0000
1000
0000
0000
1000
0000
0000
0010
0000
0000
0100
0000
0001
0000
,
1000
0000
0000
0100
0000
0000
0010
0000
0000
0100
0000
0000
1000
0000
0010
0000
,
1000
0000
0000
0100
0000
0000
0000
0000
0000
0000
0000
0000
0000
0000
0000
0000
1000
0000
0000
0001
0000
0000
0000
0000
0000
0000
0000
0000
0000
0000
0000
0000
1000
0000
0000
0100
0000
0000
0000
0000
0000
0000
0000
0000
0000
0000
0000
0000
1000
0000
0000
0100
0000
0000
0000
0000
0000
0000
0000
0000
0000
0000
0000
0000
,
1001
0000
0000
0100
0000
0000
0010
0000
0000
0001
0100
0000
0010
0000
1000
0000
,
0100
0000
0000
0010
0000
0000
0001
0000
0000
1000
0100
0000
1000
0000
0001
0000
,
0010
0000
0000
0100
0000
0000
1000
0000
0000
0010
0100
0000
0001
0000
0010
0000
,
0100
0000
0000
1000
0000
0000
0000
0000
0000
0000
0000
0000
0000
0000
0000
0000
0001
0000
0000
1000
0000
0000
0000
0000
0000
0000
0000
0000
0000
0000
0000
0000
0100
0000
0000
1000
0000
0000
0000
0000
0000
0000
0000
0000
0000
0000
0000
0000
0100
0000
0000
1000
0000
0000
0000
0000
0000
0000
0000
0000
0000
0000
0000
0000
,
0010
0000
0000
0001
0000
0000
0100
0000
0000
0000
0010
0000
0100
0000
0000
0000
,
0001
0000
0000
1000
0000
0000
1000
0000
0000
0000
0100
0000
0010
0000
0000
0000
,
0100
0000
0000
0010
0000
0000
0001
0000
0000
0000
0001
0000
0100
0000
0000
0000
,
0100
0000
0000
1000
0000
0000
0100
0000
0000
0000
0001
0000
0010
0000
0000
0000
,
0010
0000
0000
1000
0000
0000
0100
0000
0000
0000
0100
0000
0001
0000
0000
0000
,
0001
0000
0000
1000
0000
0000
0100
0000
0000
0000
1000
0000
0010
0000
0000
0000
,
0010
0000
0000
0001
0000
0000
0100
0000
0000
0000
0100
0000
1000
0000
0000
0000
,
0100
0000
0000
0001
0000
0000
0010
0000
0000
0000
0010
0000
1000
0000
0000
0000
,
0002
0003
0010
0100
,
2000
3000
0001
0100
,
1000
0000
0000
0100
0000
0000
0010
0000
0001
0000
0000
0001
0000
0000
0100
0000
,
0100
0000
0000
1000
0000
0000
1000
0000
0000
0000
0000
0000
0000
0000
0000
0000
,
0010
0000
0000
0001
0000
0000
0100
0000
0000
1000
0000
0000
0010
0000
0100
0000
,
0001
0000
0000
1000
0000
0000
1000
0000
0000
0010
0000
0000
0100
0000
1000
0000
,
1000
0000
0000
0100
0000
0000
0010
0000
0000
0100
0000
0000
1000
0000
0010
0000
,
0001
0000
0000
0100
0000
0000
0000
0000
0000
0000
0000
0000
0000
0000
0000
0000
1000
0000
0000
0001
0000
0000
0000
0000
0000
0000
0000
0000
0000
0000
0000
0000
0010
0000
0000
0100
0000
0000
0000
0000
0000
0000
0000
0000
0000
0000
0000
0000
1000
0000
0000
0100
0000
0000
0000
0000
0000
0000
0000
0000
0000
0000
0000
0000
,
1001
0000
0000
0100
0000
0000
0010
0000
0000
1000
0100
0000
0010
0000
0001
0000
,
0100
0000
0000
0010
0000
0000
0001
0000
0000
0010
0100
0000
1000
0000
0001
0000
,
0010
0000
0000
0100
0000
0000
1000
0000
0000
0001
0010
0000
1000
0000
0010
0000
,
0100
0000
0000
1000
0000
0000
0000
0000
0000
0000
0000
0000
0000
0000
0000
0000
0001
0000
0000
0010
0000
0000
0000
0000
0000
0000
0000
0000
0000
0000
0000
0000
0100
0000
0000
1000
0000
0000
0000
0000
0000
0000
0000
0000
0000
0000
0000
0000
0100
0000
0000
0001
0000
0000
0000
0000
0000
0000
0000
0000
0000
0000
0000
0000
,
0010
0000
0000
0000
1000
0000
0000
0000
0100
1000
0100
0000
0000
0000
0000
0000
,
0010
0000
0000
0000
0001
0000
0000
0000
0100
0010
0100
0000
0000
0000
0000
0000
,
0001
0010
0100
1000
,
0100
0000
0010
0000
1000
0000
0100
0000
1000
0001
1000
0000
0000
0000
0000
0000
,
0001
0000
0000
0000
0010
0000
0000
0000
1000
0100
1000
0000
0000
0000
0000
0000
;

//---------------dance-single - ----------------
#NOTES:
     dance-single:
     :
     Challenge:
     13:
     0.520437,0.697145,0.143266,0.593533,0.557716,356.000000,342.000000,14.000000,58.000000,0.000000,0.000000,0.520437,0.697145,0.143266,0.593533,0.557716,356.000000,342.000000,14.000000,58.000000,0.000000,0.000000:
0000
0000
0000
0000
,
0000
0000
0000
0000
,
0000
0000
0000
0000
,
0000
0000
0000
0000
,
0000
0000
0000
0000
,
1000
0000
0000
0100
0000
0000
0010
0001
1000
0000
0000
0010
0000
0000
1000
0001
,
0100
0000
0000
0010
0000
0000
1000
0001
0010
0000
0100
1000
0000
0001
0100
0000
,
0010
0000
0000
1000
0000
0000
0001
0100
0010
0000
0000
1000
0000
0000
0001
1000
,
0100
0000
0000
0010
0000
0000
0001
1000
0010
0000
0100
0001
0000
1000
0100
0000
,
0220
0000
0000
0000
0030
0000
0002
0003
,
2000
3000
0000
2000
0000
0000
3300
0000
,
0001
0000
0000
0001
0000
0000
1000
0000
0000
1000
0000
0000
0010
0000
0100
0000
,
0001
0011
1010
0110
,
1000
0100
1000
0000
0100
0000
1000
0000
0100
0000
0001
0000
0100
0000
0001
0000
,
0100
1000
0100
1000
0100
0001
0100
0001
,
0100
1000
0001
0000
1000
0000
0001
0000
1000
0000
0010
0000
1000
0000
0010
0000
,
0100
0000
2002
0000
0000
3000
0000
0000
0000
0100
0000
0000
0103
0000
0000
0000
,
1000
0010
1000
0000
0010
0000
1000
0000
0010
0000
0001
0000
0010
0000
0001
0000
,
0010
1000
0010
1000
0010
0001
0010
0001
,
0010
1000
0001
0000
1000
0000
0001
0000
0010
0000
0001
0000
0010
0000
0001
0000
,
1001
0000
0001
0000
0010
0000
0010
0100
0000
0100
0000
0000
1001
0000
0000
0000
,
1010
0000
0000
0001
0000
0000
0100
0000
0000
1000
0010
0000
1000
0000
0100
0000
,
0010
0000
0000
1000
0000
0000
0100
0000
0000
0001
0010
0000
0001
0000
0100
0000
,
0010
0000
0000
0001
0000
0000
0100
0000
0000
1000
0010
0000
1000
0000
0100
0000
,
0001
0100
0000
0010
0100
0000
1000
0100
0000
0010
0200
0000
0300
0000
0000
0000
,
1001
0000
0000
0001
0000
0000
0100
0000
0000
1000
0010
0000
0001
0000
0010
0000
,
1000
0000
0000
1000
0000
0000
0100
0000
0000
0001
0010
0000
1000
0000
0010
0000
,
0001
0100
0001
0100
1000
0010
1000
0010
,
0100
0001
0000
1000
0100
0000
0010
0001
0000
1000
0010
0000
0100
0010
0100
0010
,
0200
0300
0000
0002
0003
0000
0020
0030
0000
2000
3000
0000
0200
0300
0000
0000
,
0002
0003
0000
2000
3000
0000
0020
0030
0000
0002
0003
0000
0200
0300
0000
0000
,
2000
3000
0000
0020
0030
0000
0200
0300
0000
0002
0003
0000
2000
3000
0000
0000
,
0002
0003
0000
0020
0030
0000
0200
0300
0000
2000
3000
0000
0002
0003
0000
0000
,
0020
0030
0000
0002
0003
0000
0200
0300
0000
2000
3000
0000
0020
0030
0000
0000
,
2000
3000
0000
0200
0300
0000
0002
0003
0000
0020
0030
0000
0200
0300
0000
0000
,
0002
0003
0000
0002
0003
0000
2000
3000
0000
0200
0300
0000
0020
0030
0000
0000
,
2000
3000
0000
2000
3000
0000
0002
0003
0000
0200
0300
0000
2000
3000
0000
0000
,
0220
0000
0000
0000
0030
0000
2000
3000
,
0002
0003
0000
0002
0000
0000
0303
0000
,
1000
0000
0000
1000
0000
0000
0001
0000
0000
0001
0000
0000
1000
0000
0010
0000
,
0100
0101
1100
1001
,
0010
0000
0000
0010
1000
0000
0001
0000
0000
1000
0100
0000
0010
0000
0100
0000
,
0010
0000
0000
0010
0001
0000
1000
0000
0000
0001
0100
0000
0010
0000
0100
0000
,
0010
0000
0000
0010
1000
0000
0100
0000
0000
0010
0001
0000
1000
0000
0100
0000
,
1000
0010
0000
1000
0010
0000
0001
0010
0000
0001
0020
0000
0030
0000
0000
0000
,
1001
0000
0000
0100
0001
0000
0010
0000
0000
0100
1000
0000
0001
0000
1000
0000
,
0010
0000
0000
0100
1000
0000
0010
0000
0000
0100
0001
0000
1000
0000
0001
0000
,
0010
0000
0000
0100
1000
0000
0010
0000
0000
0100
0001
0000
1000
0000
0001
0000
,
0010
0100
0000
1000
0100
0000
0010
0100
0000
0001
0200
0000
0300
0000
0000
0000
,
1000
0100
0000
0100
0010
0000
0010
0001
0000
0001
1000
0000
0002
0000
0000
0000
,
0103
0010
0000
0010
0100
0010
0000
1000
0100
1000
0000
0001
0100
0001
0000
1000
,
0001
1000
0000
0001
0010
0100
0000
1000
0100
0010
0000
0001
1000
0100
0000
0010
,
0001
0000
0100
0000
1000
0000
0010
0000
0100
0001
0100
0001
2000
0000
0000
0000
,
3100
1000
0000
0100
0010
0000
0001
1000
0000
0010
0200
0000
0000
0000
0000
0000
,
0000
0000
0300
0000
;

//---------------dance-single - ----------------
#NOTES:
     dance-single:
     :
     Medium:
     8:
     0.339161,0.418287,0.184200,0.153500,0.020467,232.000000,214.000000,18.000000,15.000000,0.000000,0.000000,0.339161,0.418287,0.184200,0.153500,0.020467,232.000000,214.000000,18.000000,15.000000,0.000000,0.000000:
0000
0000
0000
0000
,
0000
0000
0000
0000
,
0000
0000
0000
0000
,
0000
0000
0000
0000
,
0000
0000
0000
0000
,
2000
0100
0001
3010
,
0002
0100
1000
0013
,
2000
0010
0100
3001
,
0002
0010
0100
1003
,
0020
0000
0000
2030
,
3200
0000
0000
0020
0000
0000
0330
0000
,
0001
0000
0000
0001
0000
0000
0001
0000
0000
0001
0000
0000
0001
0000
0001
0000
,
0000
0101
1100
1001
,
1000
0001
1000
0000
0010
0000
0100
0000
,
0001
0010
0100
1000
,
0001
0010
0001
0000
0100
0000
0010
0000
,
2000
0002
0000
0000
0000
0000
3003
0000
,
1000
0010
1000
0000
0100
0000
1000
0000
,
0001
0010
0100
1000
,
0001
0100
0001
0000
1000
0000
0010
0000
,
0100
0100
0010
0010
,
1000
0100
1000
0000
0010
0000
0010
0000
,
0001
0100
0001
0000
0010
0000
0010
0000
,
1000
0100
1000
0000
0010
0000
0010
0000
,
0101
1100
1001
0000
,
0110
0000
0001
0000
1000
0001
1000
0000
,
0110
0000
1000
0000
0001
1000
0001
0000
,
0101
0000
1000
0000
0010
1000
0010
0000
,
0100
0100
0010
0010
,
1000
0100
0001
0010
,
0100
1000
0001
1000
,
0100
0100
0010
0010
,
0001
0000
0001
0000
1000
0001
1000
0001
,
1000
1000
0010
0100
,
0010
0010
1000
0001
,
0100
1000
0010
0001
,
1000
0100
0010
0001
,
0200
0000
0000
0320
,
2030
0000
0000
0002
0000
0000
3003
0000
,
1000
0000
0000
1000
0000
0000
1000
0000
0000
1000
0000
0000
1000
0000
1000
0000
,
0000
0101
1100
1001
,
0010
0100
0010
0000
0001
0100
0001
0000
,
1000
0100
1000
0000
0010
0100
0010
0000
,
1000
0001
1000
0000
0100
0010
0100
0000
,
1100
0101
1001
0000
,
0010
1000
0001
0000
0010
0000
0010
0000
,
0001
1000
0100
0000
0010
0000
0010
0000
,
1000
0001
0100
0000
0010
0000
0010
0000
,
1001
0101
1100
0000
,
0001
0001
1000
0001
0001
0000
0000
0000
,
1000
1000
0001
1000
1000
0000
0000
0000
,
0010
0100
0010
0100
0010
0100
0010
0100
,
0010
0010
0010
0010
0000
0000
0000
0000
,
1000
0100
0010
0001
1000
0200
0000
0000
,
0000
0000
0300
0000
;

//---------------dance-single - ----------------
#NOTES:
     dance-single:
     :
     Easy:
     6:
     0.251447,0.334630,0.122800,0.184200,0.000000,172.000000,160.000000,12.000000,18.000000,0.000000,0.000000,0.251447,0.334630,0.122800,0.184200,0.000000,172.000000,160.000000,12.000000,18.000000,0.000000,0.000000:
0000
0000
0000
0000
,
0000
0000
0000
0000
,
0000
0000
0000
0000
,
0000
0000
0000
0000
,
0000
0000
0000
0000
,
1000
0100
1000
0100
,
1000
1000
0010
0000
,
0001
0100
0001
0100
,
0001
0001
0010
0000
,
2000
0000
0000
0000
,
3002
0000
0000
0000
,
0023
0000
0000
0000
,
0030
1001
1001
1001
,
0010
0010
0100
0100
,
0010
0100
0010
0100
,
0001
0001
1000
1000
,
0002
0000
0000
0003
,
1000
1000
0100
0100
,
0010
0100
1000
1000
,
0010
0010
0100
0100
,
0001
0100
0010
0100
,
0002
0003
1000
0100
,
0020
0030
0001
1000
,
0200
0300
1000
0001
,
0100
0100
0010
0000
,
2000
3000
0010
0100
,
0002
0003
0010
0100
,
2000
3000
0002
0003
,
0100
0100
0010
0010
,
1000
0100
0001
0010
,
1000
0100
0001
0010
,
0001
0100
1000
0010
,
0001
0100
0010
1001
,
0100
0001
0100
0101
,
1000
0100
1000
1100
,
0001
0010
0001
0011
,
1000
0010
1000
1010
,
0002
0000
0000
0000
,
0023
0000
0000
0000
,
0230
0000
0000
0000
,
2300
0100
0100
3100
,
1100
0001
0100
0001
,
0101
1000
0100
1000
,
0011
1000
0010
1000
,
1010
0001
0010
0000
,
0100
0001
0100
0001
,
1000
0100
1000
0100
,
0010
0001
0100
0010
,
1000
1000
0001
0001
,
0100
0100
0200
0300
,
0010
0010
0010
0010
,
0010
0010
0010
0010
,
0010
0010
0020
0030
,
1000
0100
0002
0000
,
0000
0000
0003
0000
;

//---------------dance-single - ----------------
#NOTES:
     dance-single:
     :
     Beginner:
     3:
     0.112567,0.246367,0.071633,0.112567,0.000000,77.000000,70.000000,7.000000,11.000000,0.000000,0.000000,0.112567,0.246367,0.071633,0.112567,0.000000,77.000000,70.000000,7.000000,11.000000,0.000000,0.000000:
0000
0000
0000
0000
,
0000
0000
0000
0000
,
0000
0000
0000
0000
,
0000
0000
0000
0000
,
0000
0000
0000
0000
,
1000
0000
1000
0000
,
1000
0000
0000
0000
,
0001
0000
0001
0000
,
0001
0000
0000
0000
,
0020
0000
0000
0000
,
0030
0000
0000
0000
,
0200
0000
0000
0000
,
0300
0000
0000
0000
,
1000
0000
1000
0000
,
1000
0000
1000
0000
,
0001
0000
0001
0000
,
0002
0000
0003
0000
,
0100
0000
0100
0000
,
0100
0000
0000
0000
,
0010
0000
0010
0000
,
0010
0000
0010
0000
,
1000
0000
0000
0000
,
0001
0000
0000
0000
,
0010
0000
0000
0000
,
0100
0000
0000
0000
,
1000
1000
1000
0000
,
0001
0001
0001
0000
,
0100
0100
0100
0100
,
0200
0000
0300
0000
,
0010
0000
0000
0000
,
0020
0000
0030
0000
,
1000
0000
0000
0000
,
2000
0000
3000
0000
,
0001
0000
0000
0000
,
0002
0000
0003
0000
,
0010
0000
0000
0000
,
0020
0000
0030
0000
,
0200
0000
0000
0000
,
0300
0000
0000
0000
,
0020
0000
0000
0000
,
0030
0000
0000
0000
,
1001
0000
0001
0000
,
0001
0000
0001
0000
,
1001
0000
1000
0000
,
0010
0000
0100
0000
,
1001
0000
0001
0000
,
1000
0000
0001
0000
,
0110
0000
0010
0000
,
0110
0000
0110
0000
,
0100
0100
0100
0100
,
0200
0000
0000
0000
,
0000
0000
0000
0000
,
0300
0000
0000
0000
,
0010
0000
1001
0000
;
