#VERSION:0.83;
#TITLE:ALL YOU GOTTA DO;
#SUBTITLE:;
#ARTIST:KATRINA;
#TITLETRANSLIT:;
#SUBTITLETRANSLIT:;
#ARTISTTRANSLIT:;
#GENRE:;
#ORIGIN:;
#CREDIT:;
#BANNER:;
#BACKGROUND:;
#PREVIEWVID:;
#JACKET:;
#CDIMAGE:;
#DISCIMAGE:;
#LYRICSPATH:;
#CDTITLE:;
#MUSIC:All you gotta do.ogg;
#OFFSET:-0.700000;
#SAMPLESTART:38.240032;
#SAMPLELENGTH:12.000000;
#SELECTABLE:YES;
#BPMS:0.000=153.380;
#STOPS:;
#DELAYS:;
#WARPS:;
#TIMESIGNATURES:0.000=4=4;
#TICKCOUNTS:0.000=4;
#COMBOS:0.000=1;
#SPEEDS:0.000=1.000=0.000=0;
#SCROLLS:0.000=1.000;
#FAKES:;
#LABELS:0.000=Song Start;
#BGCHANGES:;
#KEYSOUNDS:;
#ATTACKS:
;

//---------------dance-single - ----------------
#NOTEDATA:;
#CHARTNAME:;
#STEPSTYPE:dance-single;
#DESCRIPTION:;
#CHARTSTYLE:;
#DIFFICULTY:Hard;
#METER:14;
#RADARVALUES:0.665926,0.913618,0.211886,0.111519,0.496259,418.000000,399.000000,19.000000,10.000000,0.000000,0.000000,0.000000,0.000000,0.000000,0.665926,0.913618,0.211886,0.111519,0.496259,418.000000,399.000000,19.000000,10.000000,0.000000,0.000000,0.000000,0.000000,0.000000;
#CREDIT:;
#NOTES:
0000
0000
0000
0000
,
0000
0000
0000
0000
,
0000
0000
0000
0000
,
0000
0000
0000
0000
,
1000
0100
1000
0100
1000
0000
0100
1000
0100
1000
0100
0000
0000
1000
0000
1000
,
0001
0100
0001
0100
0001
0100
0001
0100
0000
0010
1000
0010
1000
0001
1000
0000
,
1000
0100
1000
0100
1000
0000
0001
0100
0001
0100
0001
0000
0000
0100
0000
0010
,
0100
0010
0100
0010
1000
0001
1000
0001
0100
0010
0100
0010
1000
0001
1000
0001
,
1000
1000
1000
0000
0100
0000
0100
0000
,
0001
0001
0001
0000
0100
0000
0100
0000
,
1000
1000
1000
0000
0100
0000
1000
0000
,
0001
0001
0001
0000
0100
0000
0001
0000
,
1000
0100
1000
0000
0010
0100
0010
0000
,
1000
0001
0100
0000
0001
1000
0100
0000
,
1000
0001
0010
0000
0001
1000
0010
0000
,
1000
0100
0001
0010
1000
0100
0001
0010
,
2000
0100
0010
0100
,
3002
0100
0010
1000
,
2003
0010
0100
0010
,
3002
0100
0010
0100
,
1003
1100
0001
0011
,
0100
1010
0010
1100
,
0001
0101
1010
1100
,
1001
0100
0100
0100
0100
0100
0100
0100
,
1001
0100
0001
0100
0010
1000
0100
1000
,
1000
0001
0100
0010
0100
0001
1000
0010
,
0010
0100
0001
0100
0010
0100
1000
0100
,
0100
0010
1000
0100
1000
0001
0100
0001
,
0001
0010
0001
0100
0010
0100
0010
1000
,
1000
0100
1000
0010
0100
0001
0100
0010
,
0010
1000
0001
0100
0001
0100
0010
1000
,
1000
0100
1000
0010
1000
0100
1000
0010
0100
0001
0100
0010
0100
0001
0100
0010
,
1000
0100
1000
0100
1000
0000
0100
1000
0100
1000
0100
0000
0000
1000
0000
1000
,
0001
0100
0001
0100
0001
0100
0001
0100
0000
0010
1000
0010
1000
0001
1000
0000
,
1000
0100
1000
0100
1000
0000
0001
0100
0001
0100
0001
0000
0000
0100
0000
0010
,
0100
0010
0100
0010
1000
0001
1000
0001
0100
0010
0100
0010
1000
0001
1000
0001
,
1000
0100
1000
0100
1000
0000
0100
1000
0100
1000
0100
0000
0000
1000
0000
1000
,
0001
0100
0001
0100
0001
0100
0001
0100
0000
0010
1000
0010
1000
0001
1000
0000
,
1000
0100
1000
0100
1000
0000
0001
0100
0001
0100
0001
0000
0000
0100
0000
0010
,
0100
0010
0100
0010
1000
0001
1000
0001
0100
0010
0100
0010
1000
0001
1000
0001
,
1000
1000
1000
0000
0100
0000
0100
0000
,
0001
0001
0001
0000
0100
0000
0100
0000
,
1000
1000
1000
0000
0100
0000
1000
0000
,
0001
0001
0001
0000
0100
0000
0001
0000
,
1000
0100
1000
0000
0010
0100
0010
0000
,
1000
0001
0100
0000
0001
1000
0100
0000
,
1000
0001
0010
0000
0001
1000
0010
0000
,
1000
0100
0001
0010
1000
0100
0001
0010
,
2000
0100
0010
0100
,
3002
0100
0010
1000
,
2003
0010
0100
0010
,
3002
0100
0010
0100
,
1003
1100
0001
0011
,
0100
1010
0010
1100
,
0001
0101
1010
1100
,
1001
0100
0100
0100
1001
0100
0100
0100
,
2002
0000
3003
0000
;

//---------------dance-single - ----------------
#NOTEDATA:;
#CHARTNAME:;
#STEPSTYPE:dance-single;
#DESCRIPTION:;
#CHARTSTYLE:;
#DIFFICULTY:Medium;
#METER:10;
#RADARVALUES:0.430144,0.472561,0.156126,0.256493,0.000000,270.000000,256.000000,14.000000,23.000000,0.000000,0.000000,0.000000,0.000000,0.000000,0.430144,0.472561,0.156126,0.256493,0.000000,270.000000,256.000000,14.000000,23.000000,0.000000,0.000000,0.000000,0.000000,0.000000;
#CREDIT:;
#NOTES:
0000
0000
0000
0000
,
0000
0000
0000
0000
,
0000
0000
0000
0000
,
0000
0000
0000
0000
,
1000
0001
0100
0001
1000
0100
0000
0000
,
1000
0100
0010
0001
0010
0100
1000
0000
,
1000
0001
0100
0001
1000
0100
0000
0000
,
1000
0100
0010
0001
0010
0100
1000
0000
,
0001
0100
0002
0103
,
0010
0100
0020
0130
,
0001
1000
0002
1003
,
0100
1000
0200
1300
,
0010
1000
0020
1030
,
0100
0010
0200
0310
,
0001
0100
0020
1030
,
1000
0001
2000
3010
,
0100
0001
0100
0000
0001
0000
0100
0000
,
0001
0100
0001
0000
0100
0000
0001
0000
,
1000
0010
1000
0000
0010
0000
1000
0000
,
0010
1000
0010
0000
1000
0000
0010
0000
,
1000
0100
1000
0000
0100
0000
1000
0000
,
0100
1000
0100
0000
1000
0000
0100
0000
,
0010
0001
0010
0000
0001
0010
0001
0000
,
0020
0000
0000
0030
,
1001
0100
1001
0100
,
1001
0100
1001
0100
,
1001
2100
0001
3010
,
1001
0102
1000
0013
,
1001
0010
1001
0010
,
1001
0010
1001
0010
,
2001
0010
0100
3010
,
1002
0100
0010
0103
,
1000
0001
0100
0001
1000
0100
0000
0000
,
1000
0100
0010
0001
0010
0100
1000
0000
,
1000
0001
0100
0001
1000
0100
0000
0000
,
1000
0100
0010
0001
0010
0100
1000
0000
,
1000
0001
0100
0001
1000
0100
0000
0000
,
1000
0100
0010
0001
0010
0100
1000
0000
,
1000
0001
0100
0001
1000
0100
0000
0000
,
1000
0100
0010
0001
0010
0100
1000
0000
,
0001
0100
0002
0103
,
0010
0100
0020
0130
,
0001
1000
0002
1003
,
0100
1000
0200
1300
,
0010
1000
0020
1030
,
0100
0010
0200
0310
,
0001
0100
0020
1030
,
1000
0001
2000
3010
,
0100
0001
0100
0000
0001
0000
0100
0000
,
0001
0100
0001
0000
0100
0000
0001
0000
,
1000
0010
1000
0000
0010
0000
1000
0000
,
0010
1000
0010
0000
1000
0000
0010
0000
,
1000
0100
1000
0000
0100
0000
1000
0000
,
0100
1000
0100
0000
1000
0000
0100
0000
,
0010
0001
0010
0000
0001
0010
0001
0000
,
0001
0001
0001
0001
1000
0100
1000
0200
,
2000
0000
3300
0000
;

//---------------dance-single - ----------------
#NOTEDATA:;
#CHARTNAME:;
#STEPSTYPE:dance-single;
#DESCRIPTION:;
#CHARTSTYLE:;
#DIFFICULTY:Easy;
#METER:6;
#RADARVALUES:0.350488,0.441057,0.356860,0.156126,0.000000,220.000000,188.000000,32.000000,14.000000,0.000000,0.000000,0.000000,0.000000,0.000000,0.350488,0.441057,0.356860,0.156126,0.000000,220.000000,188.000000,32.000000,14.000000,0.000000,0.000000,0.000000,0.000000,0.000000;
#CREDIT:;
#NOTES:
// measure 0
0000
0000
0000
0000
,  // measure 1
0000
0000
0000
0000
,  // measure 2
0000
0000
0000
0000
,  // measure 3
0000
0000
0000
0000
,  // measure 4
1000
1000
0100
1000
,  // measure 5
0001
0001
0100
0001
,  // measure 6
1000
1000
0010
1000
,  // measure 7
0001
0001
0010
0001
,  // measure 8
1000
0001
0100
0010
,  // measure 9
1001
0110
1001
0000
,  // measure 10
1000
0100
0010
0001
,  // measure 11
1001
0110
1001
0000
,  // measure 12
1000
0100
1000
0010
,  // measure 13
1001
0110
1001
0000
,  // measure 14
0001
0010
0001
0100
,  // measure 15
1001
0110
1001
0000
,  // measure 16
1000
0100
1000
0100
,  // measure 17
2000
3000
0002
0003
,  // measure 18
0001
0100
0010
1000
,  // measure 19
0020
0030
0200
0300
,  // measure 20
0010
1000
0010
0100
,  // measure 21
0002
0003
2000
3000
,  // measure 22
1000
1000
1000
0001
,  // measure 23
1001
0110
1001
0000
,  // measure 24
1000
1000
0100
0100
,  // measure 25
0010
0010
0001
0001
,  // measure 26
1000
0100
0010
0001
,  // measure 27
1000
0100
0010
0001
,  // measure 28
1000
1000
0001
0001
,  // measure 29
0100
0100
0010
0010
,  // measure 30
1000
0001
0100
0010
,  // measure 31
1000
0001
0100
0010
,  // measure 32
1000
1000
0100
1000
,  // measure 33
0001
0001
0100
0001
,  // measure 34
1000
1000
0010
1000
,  // measure 35
0001
0001
0010
0001
,  // measure 36
1000
1000
0100
1000
,  // measure 37
0001
0001
0100
0001
,  // measure 38
1000
1000
0010
1000
,  // measure 39
0001
0001
0010
0001
,  // measure 40
1000
0001
0100
0010
,  // measure 41
1001
0110
1001
0000
,  // measure 42
1000
0100
0010
0001
,  // measure 43
1001
0110
1001
0000
,  // measure 44
1000
0100
1000
0010
,  // measure 45
1001
0110
1001
0000
,  // measure 46
0001
0010
0001
0100
,  // measure 47
1001
0110
1001
0000
,  // measure 48
1000
0100
1000
0100
,  // measure 49
2000
3000
0002
0003
,  // measure 50
0001
0100
0010
1000
,  // measure 51
0020
0030
0200
0300
,  // measure 52
0010
1000
0010
0100
,  // measure 53
0002
0003
2000
3000
,  // measure 54
1000
1000
1000
0001
,  // measure 55
1001
0110
1001
0110
,  // measure 56
2002
0000
3003
0000
;

//---------------dance-single - ----------------
#NOTEDATA:;
#CHARTNAME:;
#STEPSTYPE:dance-single;
#DESCRIPTION:;
#CHARTSTYLE:;
#DIFFICULTY:Beginner;
#METER:3;
#RADARVALUES:0.165685,0.281027,0.055759,0.133823,0.000000,104.000000,99.000000,5.000000,12.000000,0.000000,0.000000,0.000000,0.000000,0.000000,0.165685,0.281027,0.055759,0.133823,0.000000,104.000000,99.000000,5.000000,12.000000,0.000000,0.000000,0.000000,0.000000,0.000000;
#CREDIT:;
#NOTES:
// measure 0
0000
0000
0000
0000
,  // measure 1
0000
0000
0000
0000
,  // measure 2
0000
0000
0000
0000
,  // measure 3
0000
0000
0000
0000
,  // measure 4
2000
3000
1000
0000
,  // measure 5
0002
0003
0001
0000
,  // measure 6
0200
0300
0100
0000
,  // measure 7
0020
0030
0010
0000
,  // measure 8
1000
1000
0000
0000
,  // measure 9
1000
1000
0000
0000
,  // measure 10
0001
0001
0000
0000
,  // measure 11
0001
0001
0000
0000
,  // measure 12
0100
0100
0000
0000
,  // measure 13
0100
0100
0000
0000
,  // measure 14
0010
0010
0000
0000
,  // measure 15
0010
0010
0000
0000
,  // measure 16
1000
0000
1000
0000
,  // measure 17
1000
0000
0000
0000
,  // measure 18
0001
0000
0001
0000
,  // measure 19
0001
0000
0000
0000
,  // measure 20
0100
0000
0100
0000
,  // measure 21
0100
0000
0000
0000
,  // measure 22
0010
0000
0010
0000
,  // measure 23
0010
0000
0000
0000
,  // measure 24
1001
0000
0000
0000
,  // measure 25
1001
0000
0000
0000
,  // measure 26
0100
0100
0100
0100
,  // measure 27
0100
0100
0100
0000
,  // measure 28
1001
0000
0000
0000
,  // measure 29
1001
0000
0000
0000
,  // measure 30
0010
0010
0010
0010
,  // measure 31
0010
0010
0010
0000
,  // measure 32
2000
3000
1000
0000
,  // measure 33
0002
0003
0001
0000
,  // measure 34
0200
0300
0100
0000
,  // measure 35
0020
0030
0010
0000
,  // measure 36
2000
3000
1000
0000
,  // measure 37
0002
0003
0001
0000
,  // measure 38
0200
0300
0100
0000
,  // measure 39
0020
0030
0010
0000
,  // measure 40
1000
1000
0000
0000
,  // measure 41
1000
1000
0000
0000
,  // measure 42
0001
0001
0000
0000
,  // measure 43
0001
0001
0000
0000
,  // measure 44
0100
0100
0000
0000
,  // measure 45
0100
0100
0000
0000
,  // measure 46
0010
0010
0000
0000
,  // measure 47
0010
0010
0000
0000
,  // measure 48
1000
0000
1000
0000
,  // measure 49
1000
0000
0000
0000
,  // measure 50
0001
0000
0001
0000
,  // measure 51
0001
0000
0000
0000
,  // measure 52
0100
0000
0100
0000
,  // measure 53
0100
0000
0000
0000
,  // measure 54
0010
0000
0010
0000
,  // measure 55
0010
0000
0000
0000
,  // measure 56
1001
0000
0000
0000
;
