#TITLE:AFRONOVA;
#SUBTITLE:(STAMINA HUNTING STYLE);
#ARTIST:RE-VENGE;
#TITLETRANSLIT:;
#SUBTITLETRANSLIT:;
#ARTISTTRANSLIT:;
#GENRE:;
#CREDIT:;
#BANNER:AFRONOVA(FROM NONSTOP MEGAMIX).png;
#BACKGROUND:AFRONOVA(FROM NONSTOP MEGAMIX)-bg.png;
#LYRICSPATH:;
#CDTITLE:;
#MUSIC:AFRONOVA(FROM NONSTOP MEGAMIX).ogg;
#OFFSET:0.000000;
#SAMPLESTART:22.799999;
#SAMPLELENGTH:15.000000;
#SELECTABLE:YES;
#DISPLAYBPM:200.000000;
#BPMS:0.000000=200.000000
;
#STOPS:
;
#BGCHANGES:;
#KEYSOUNDS:;
#ATTACKS:;

//---------------dance-single - ----------------
#NOTES:
     dance-single:
     :
     Hard:
     12:
     0.593712,0.696982,0.363248,0.192308,0.000000,389.000000,355.000000,34.000000,18.000000,0.000000,0.000000,0.593712,0.696982,0.363248,0.192308,0.000000,389.000000,355.000000,34.000000,18.000000,0.000000,0.000000:
0000
0000
0000
0000
,
0000
0000
0000
0000
,
0000
0000
0000
0000
,
1000
1000
0001
0001
,
1000
1000
0001
0001
,
0010
1000
0010
0000
0001
0100
0001
0000
,
1000
0001
1000
0001
1000
0001
1000
0000
,
0010
0010
0100
0100
,
0010
0010
0100
0100
,
0001
0010
0001
0000
0100
1000
0100
0000
,
0010
0100
0010
0100
0010
0000
0110
0000
,
0010
1000
0100
1001
,
0010
0001
0100
1001
,
1000
0001
1000
1001
,
0010
0100
0010
0110
,
0010
1000
0001
0101
,
1000
0100
0010
0011
,
0100
1000
0001
0101
,
0010
0001
1001
1100
,
0010
1000
0010
0000
1000
0001
1000
0000
,
0010
1000
0010
1000
0010
1000
0010
0000
,
0100
0010
0100
0000
0001
0100
0001
0000
,
1000
0100
1000
0100
1000
0100
1000
0000
,
0010
0001
0010
0000
0100
1000
0100
0000
,
0001
0100
0001
0100
0001
0100
0001
0000
,
1000
0010
1000
0000
0001
0010
0001
0000
,
0001
1000
0001
1000
0001
1000
0001
0000
,
0220
0330
0001
1000
,
0010
1001
2002
3003
,
2200
3300
0001
0100
,
0010
0101
0202
0303
,
2002
3003
0010
0100
,
0001
1000
2002
3003
,
2200
3300
0001
0100
,
1000
0100
0202
0303
,
0010
0001
0010
0000
0001
0100
0001
0000
,
0010
1000
0010
1000
0001
1000
0001
0000
,
0100
0010
0100
0000
0001
1000
0001
0000
,
1000
0100
1000
0100
1000
0001
1000
0000
,
0001
0100
0001
0000
1000
0100
1000
0000
,
0010
0001
0010
0001
1000
0001
1000
0000
,
0100
1000
0100
0000
0100
0010
0100
0000
,
1000
0001
1000
0001
1000
0000
0101
0000
,
0010
0010
1000
1000
,
0100
0100
0010
0010
,
0001
0001
0100
0100
,
0001
0001
1000
1000
,
0010
1000
0010
0000
0001
0100
0001
0000
,
1000
0100
1000
0000
0010
0001
0010
0000
,
0001
1000
0001
0000
0100
0001
0100
0000
,
0010
1000
0010
1000
0010
0000
1001
0000
,
0010
0100
0000
0000
0001
1000
0001
0000
,
0100
0001
0100
0000
1001
0000
0000
0000
,
1000
0100
0000
0000
0001
1000
0001
0000
,
0100
0010
0100
0000
0101
0000
0000
0000
,
1000
0001
0000
0000
0010
0100
0010
0000
,
0001
0100
0001
0000
1100
0000
0000
0000
,
0010
0100
0000
0000
1000
0100
1000
0000
,
0010
0001
0010
0000
1001
0000
0000
0000
,
1001
0000
0100
0010
0000
0000
0001
1000
,
0000
0010
0100
0000
0001
0000
1000
0000
,
0110
0001
0000
1000
,
0000
1000
0100
0000
0010
0000
0000
0000
,
0101
0000
0010
1000
0000
0000
0100
1000
,
0000
0010
0100
0000
0001
0000
0001
0000
,
1100
0001
0000
0010
,
0000
0100
1000
0000
0001
0000
0000
0000
,
0010
1000
0010
0000
0001
0100
0001
0000
,
1000
0100
1000
0000
0010
0000
0101
0000
,
0010
0100
0010
0000
0100
1000
0100
0000
,
0100
0001
0100
0000
0010
0000
1001
0000
,
0010
1000
0010
0000
0010
0001
0010
0000
,
0100
1000
0100
0000
0001
0000
0101
0000
,
1000
0001
1000
0001
1000
0001
1000
0010
,
0100
0010
0100
0010
0100
0010
0100
0000
,
2002
0000
0000
0000
,
0000
0000
0000
3003
;

//---------------dance-single - ----------------
#NOTES:
     dance-single:
     :
     Challenge:
     14:
     0.795177,0.781517,0.438034,0.149573,0.026709,521.000000,480.000000,41.000000,14.000000,0.000000,0.000000,0.795177,0.781517,0.438034,0.149573,0.026709,521.000000,480.000000,41.000000,14.000000,0.000000,0.000000:
0000
0000
0000
0000
,
0000
0000
0000
0000
,
0000
0000
0000
0000
,
0110
0100
0010
1000
0100
0000
0010
0001
,
1000
0000
0100
1000
0001
0000
0010
0100
,
1000
0000
0010
0100
0001
0000
1000
0010
,
0100
0000
1000
0100
0010
0001
1000
0010
,
0010
0000
1000
0100
0010
0000
0001
0100
,
1000
0000
0100
0001
0010
0000
0001
1000
,
0100
0000
0010
0100
1000
0000
0001
0100
,
0010
1000
0000
1100
0000
0101
0000
1001
,
0001
0010
0100
0010
0001
0000
1000
0100
,
0001
0100
1000
0000
0001
0100
1000
0100
,
0001
0000
1000
0010
0100
0010
1000
0000
,
0001
0100
0010
0100
0001
0000
1000
0100
,
0010
0100
0000
1001
0000
0010
1000
0010
,
0100
0000
0001
0100
0010
1000
0001
0000
,
1000
0100
0010
0001
1000
0000
0100
1000
,
0001
1000
0010
0000
0100
0001
0100
0010
,
1000
0100
0100
0000
0001
0100
0100
0000
,
1000
0010
0100
0001
1000
0100
0010
0000
,
0001
0010
0010
0000
1000
0010
0010
0000
,
0001
0100
0010
1000
0100
1000
0001
0000
,
1000
0100
1100
0000
0001
0100
0101
0000
,
1000
0010
0100
0001
1000
0001
1001
0000
,
0001
0010
0011
0000
1000
0010
1010
0000
,
0100
0001
1000
0100
0010
0001
0011
0000
,
2000
0100
0000
3100
0010
0010
0001
0001
,
1000
1000
0100
0000
1001
1000
0010
1000
,
0002
0100
0000
0103
0010
0010
1000
1000
,
0001
0001
0100
0000
2002
0000
3003
0000
,
0110
0100
0010
0000
1000
0100
1000
0001
,
0010
0000
0001
0000
0011
0000
0000
0000
1100
0000
0000
1000
0001
0000
1000
0000
,
0010
0100
0110
0000
1001
0000
0101
0200
,
0020
0000
0000
0330
,
0001
0100
1000
0001
0010
0000
1000
0100
,
0001
1000
0010
0000
0001
0100
0010
1000
,
0100
0010
0001
0100
1000
0100
0001
1000
,
0010
0100
0001
1000
0100
0010
0001
0000
,
1000
0100
0000
1100
0000
0001
0010
0001
,
1000
0001
0100
0000
1000
0010
1000
0001
,
1000
0000
0010
0100
0001
0010
0100
0000
,
1000
0000
0100
0000
0001
0000
0000
0100
0010
0000
0001
0000
1000
0000
0010
0000
,
0200
0301
0100
0001
1000
0010
1000
0010
,
0001
0010
0001
0010
1000
0100
0001
0000
,
1000
0100
0010
0001
1000
0010
0001
1000
,
0100
0001
1000
0010
0001
1000
0100
0000
,
0002
0103
0001
0100
0010
1000
0010
1000
,
0100
1000
0001
0010
0100
1000
0001
0000
,
1000
0100
0001
1000
0010
0001
1000
0100
,
0001
1000
0010
0001
0100
0010
1000
0000
,
0002
0100
0003
0010
1000
1000
0100
0100
,
0001
0001
0100
0000
1001
0001
0100
0010
,
2000
0100
3000
0010
0001
0001
0100
0100
,
1000
1000
0100
0000
2002
0000
3003
0000
,
0110
0010
0100
0000
0001
0010
0001
1000
,
0100
1000
1100
0000
0011
0001
1000
0001
,
0100
0010
0110
0000
1001
0000
1100
0000
,
1010
0000
0010
0000
1000
0000
0010
0000
0100
0000
0000
0001
1000
0000
0001
0000
,
0100
1000
0100
0001
0100
0000
0010
0001
,
0010
1000
0010
0000
0100
0000
1001
0000
,
0010
1000
0010
0001
0010
0000
0100
0001
,
0100
1000
0100
0000
0110
0000
1001
0000
,
1100
0100
0010
0001
1000
0000
1100
0100
,
0010
0001
1000
0000
0101
0000
1100
0000
,
0101
0100
0010
1000
0001
0000
0101
0100
,
0010
0000
1000
0000
0001
0000
0000
0100
0010
0000
0010
0000
1000
0000
0100
0000
,
1000
0010
0010
0100
0001
1000
0100
0100
,
0010
0001
1000
1000
0010
0100
0010
0000
,
0001
0100
0100
0010
1000
0001
0010
0010
,
0100
1000
0100
0000
0011
0000
1100
1000
,
0100
0010
0010
0001
1000
0100
1000
1000
,
0010
0100
0001
0001
0100
0010
1000
0000
,
0001
0100
0010
0010
1000
0001
0010
0010
,
0100
0000
1000
0000
0001
0000
0000
0010
0100
0000
0100
0000
0010
0000
0001
0000
,
2002
0000
0000
0000
,
0000
0000
0000
0000
,
3003
0000
0000
0000
;

//---------------dance-single - ----------------
#NOTES:
     dance-single:
     :
     Medium:
     11:
     0.554029,0.614984,0.459402,0.363248,0.000000,363.000000,320.000000,43.000000,34.000000,0.000000,0.000000,0.554029,0.614984,0.459402,0.363248,0.000000,363.000000,320.000000,43.000000,34.000000,0.000000,0.000000:
0000
0000
0000
0000
,
0000
0000
0000
0000
,
0000
0000
0000
0000
,
1000
1000
0001
0001
,
0100
0001
0100
0010
,
1000
0100
1000
0010
,
0100
0001
0001
0001
,
1000
1000
1000
0010
,
0100
0001
0001
0001
,
1000
1000
0001
0001
,
1000
0001
1000
1001
,
1000
0100
1000
1100
,
0001
0100
0001
0101
,
0001
1000
0100
1100
,
0001
0100
0010
0101
,
0010
1000
0100
1100
,
0001
0100
0010
0101
,
0010
1000
0100
1100
,
1000
0100
0001
0010
,
1000
0100
1000
0000
1000
0100
1000
0000
,
1000
0100
1000
0100
1000
0100
1000
0000
,
0001
0100
0001
0000
0001
0100
0001
0000
,
0001
0100
0001
0100
0001
0100
0001
0000
,
1000
0100
1000
0000
1000
0100
1000
0000
,
1000
0100
1000
0100
1000
0100
1000
0000
,
0001
0100
0001
0000
0001
0100
0001
0000
,
0001
0100
0001
0100
0001
0100
0001
0000
,
0220
0330
0001
1000
,
0010
1001
2002
3003
,
2200
3300
0001
0100
,
0010
0101
0202
0303
,
2002
3003
0010
0100
,
0001
1000
2002
3003
,
2200
3300
0001
0100
,
1000
0100
0202
0303
,
1000
0100
1000
1100
,
0001
0100
0001
0101
,
0001
1000
0100
1100
,
0001
0100
0010
0101
,
0010
1000
0100
1100
,
0001
0100
0010
0101
,
0010
1000
0100
1100
,
1000
0100
0001
0010
,
1000
0010
1000
0000
0010
1000
0010
0000
,
1000
0010
1000
0010
1000
0100
1000
0000
,
0001
0010
0001
0000
0010
0001
0010
0000
,
0001
0010
0001
0010
0001
0100
0001
0000
,
1000
0010
1000
0000
0010
1000
0010
0000
,
1000
0010
1000
0010
1000
0100
1000
0000
,
0001
0010
0001
0000
0001
0100
0001
0000
,
0001
0010
0001
0010
0001
0100
0001
0000
,
0220
0330
0001
1000
,
0010
1001
2002
3003
,
2200
3300
0001
0100
,
0010
0101
0202
0303
,
2002
3003
0010
0100
,
0001
1000
2002
3003
,
2200
3300
0001
0100
,
1000
0100
0202
0303
,
1001
0000
0100
0001
0000
0000
0100
0001
,
0000
0100
0001
0000
0100
0000
0001
0000
,
1001
0000
0100
1000
0000
0000
0100
1000
,
0000
0100
1000
0000
0100
0000
1000
0000
,
1001
0000
0100
0010
0000
0000
1000
0001
,
0000
0100
0010
0000
1000
0000
0100
0000
,
0011
0000
0001
0010
0000
0000
0001
0100
,
0000
0001
1000
0000
1001
0000
0110
0000
,
1001
0100
1000
0100
,
1000
0010
0100
0001
,
0100
0010
1000
0100
,
1000
0001
0100
0001
,
0100
0010
1000
0100
,
1000
0010
0100
0001
,
0100
0010
1000
0001
,
1000
0001
1000
0001
1000
0001
0100
0000
,
2002
0000
0000
0000
,
0000
0000
0000
3003
;

//---------------dance-single - ----------------
#NOTES:
     dance-single:
     :
     Easy:
     8:
     0.457875,0.573985,0.544872,0.021368,0.000000,300.000000,249.000000,51.000000,2.000000,0.000000,0.000000,0.457875,0.573985,0.544872,0.021368,0.000000,300.000000,249.000000,51.000000,2.000000,0.000000,0.000000:
0000
0000
0000
0000
,
0000
0000
0000
0000
,
0000
0000
0000
0000
,
1000
1000
0100
1000
,
0001
0001
0100
0001
,
1000
1000
0100
1000
,
0001
0001
0100
0001
,
1000
1000
0010
0100
,
0001
0001
0010
0100
,
1000
1000
0010
0100
,
0001
0001
0010
0100
,
1000
0100
1000
1100
,
0001
0100
0001
0101
,
0001
1000
0100
1001
,
1000
0001
0100
1001
,
1000
0001
0100
1001
,
0001
1000
0100
1001
,
1000
0010
0100
0110
,
0001
0100
0010
0110
,
0100
0001
0000
0001
,
0000
1000
0000
1000
,
0100
1000
0000
1000
,
0000
0001
0000
0001
,
0100
0001
0000
0001
,
0000
1000
0000
1000
,
0100
1000
0000
1000
,
0000
0001
0000
0001
,
1001
1000
1001
0001
,
0110
1001
0110
0000
,
1001
1000
1001
0001
,
0110
1001
0110
0000
,
1001
1000
1001
0001
,
0110
1001
0110
0000
,
1001
1000
1001
0001
,
0110
1001
0110
0000
,
1000
0100
1000
0100
,
1000
0010
0100
0001
,
0100
0001
0100
0001
,
0100
0010
1000
0100
,
1000
0010
1000
0001
,
0100
0001
0100
0010
,
0100
0010
1000
0100
,
1000
0010
0100
0001
,
0100
0001
0000
0001
,
0000
1000
0000
1000
,
0100
1000
0000
1000
,
0000
0001
0000
0001
,
0100
0001
0000
0001
,
0000
1000
0000
1000
,
0100
1000
0000
1000
,
0000
0001
0000
0001
,
1001
1000
1001
0001
,
0110
1001
0110
0000
,
1001
1000
1001
0001
,
0110
1001
0110
0000
,
1001
1000
1001
0001
,
0110
1001
0110
0000
,
1001
1000
1001
0001
,
0110
1001
0110
0000
,
1001
0100
0100
1000
,
0001
0100
0001
1000
,
0100
1000
0010
0100
,
0001
0100
0010
1000
,
1001
1000
0010
0100
,
0001
0100
0010
1000
,
0001
0100
0010
0100
,
0001
0100
0010
1000
,
1000
0000
1000
0000
,
0001
0000
0001
0000
,
1000
0100
0001
0100
,
1000
0100
0001
0100
,
1000
0000
1000
0000
,
0001
0000
0001
0000
,
1000
0010
0001
0010
,
1000
0010
0001
0010
,
2002
0000
0000
0000
,
0000
0000
0000
3003
;

//---------------dance-single - ----------------
#NOTES:
     dance-single:
     :
     Beginner:
     4:
     0.247253,0.327991,0.010684,0.074786,0.000000,162.000000,161.000000,1.000000,7.000000,0.000000,0.000000,0.247253,0.327991,0.010684,0.074786,0.000000,162.000000,161.000000,1.000000,7.000000,0.000000,0.000000:
0000
0000
0000
0000
,
0000
0000
0000
0000
,
0000
0000
0000
0000
,
1000
1000
0000
0000
,
1000
1000
0000
0000
,
0001
0001
0000
0000
,
0001
0001
0000
0000
,
0100
0100
0000
0000
,
0100
0100
0000
0000
,
0010
0010
0000
0000
,
0020
0000
0030
0000
,
0010
0000
1000
0000
,
0001
0000
0100
0000
,
0010
0000
1000
0000
,
0001
0000
0100
0000
,
0010
0000
1000
0000
,
0001
0000
0100
0000
,
0010
0000
1000
0000
,
0001
0000
0100
0000
,
1000
1000
0000
0000
,
1000
1000
0000
0000
,
0001
0001
0000
0000
,
0001
0001
0000
0000
,
0100
0100
0000
0000
,
0100
0100
0100
0000
,
0010
0010
0000
0000
,
0010
0010
0000
0000
,
0001
0001
0001
0001
,
0001
0001
0001
0000
,
1000
1000
1000
1000
,
1000
1000
1000
0000
,
0010
0010
0010
0010
,
0010
0010
0010
0000
,
0100
0100
0100
0100
,
0100
0100
0100
0000
,
0001
0000
0100
0000
,
0001
0000
0100
0000
,
1000
0000
0010
0000
,
1000
0000
0010
0000
,
0001
0000
0100
0000
,
0001
0000
0100
0000
,
1000
0000
0010
0000
,
1000
0000
0010
0000
,
1000
1000
0000
0000
,
1000
1000
0000
0000
,
0001
0001
0000
0000
,
0001
0001
0000
0000
,
0100
0100
0000
0000
,
0100
0100
0100
0000
,
0010
0010
0000
0000
,
0010
0010
0000
0000
,
0001
0001
0001
0001
,
0001
0001
0001
0000
,
1000
1000
1000
1000
,
1000
1000
1000
0000
,
0010
0010
0010
0010
,
0010
0010
0010
0000
,
0100
0100
0100
0100
,
0100
0100
0100
0000
,
0000
0000
1000
0000
,
1000
0000
1000
0000
,
0001
0000
0001
0000
,
0001
0000
0001
0000
,
0100
0000
0100
0000
,
0100
0000
0100
0000
,
0010
0000
0010
0000
,
0010
0000
0010
0000
,
2000
0000
3000
0000
,
1000
0000
0000
0000
,
0002
0000
0003
0000
,
0001
0000
0000
0000
,
0200
0000
0300
0000
,
0100
0000
0000
0000
,
0020
0000
0030
0000
,
0010
0000
0000
0000
,
2002
0000
0000
0000
,
0000
0000
0000
3003
;
