#VERSION:0.83;
#TITLE:A-JAX (3-WAY MIX);
#SUBTITLE:;
#ARTIST:Mr.T;
#TITLETRANSLIT:;
#SUBTITLETRANSLIT:;
#ARTISTTRANSLIT:;
#GENRE:GAME MUSIC;
#ORIGIN:;
#CREDIT:;
#BANNER:A-JAX (3-WAY MIX).png;
#BACKGROUND:A-JAX (3-WAY MIX)-bg.png;
#PREVIEWVID:;
#JACKET:A-JAX (3-WAY MIX)-jacket.png;
#CDIMAGE:;
#DISCIMAGE:;
#LYRICSPATH:;
#CDTITLE:;
#MUSIC:A-JAX (3-WAY MIX).ogg;
#OFFSET:-0.240000;
#SAMPLESTART:31.910000;
#SAMPLELENGTH:15.000000;
#SELECTABLE:YES;
#BPMS:0.000=62.000,
4.000=224.000,
188.000=174.000,
288.000=154.000,
292.000=308.000,
460.000=296.000,
468.000=284.000;
#STOPS:;
#DELAYS:;
#WARPS:;
#TIMESIGNATURES:0.000=4=4;
#TICKCOUNTS:0.000=4;
#COMBOS:0.000=1;
#SPEEDS:0.000=1.000=0.000=0;
#SCROLLS:0.000=1.000;
#FAKES:;
#LABELS:0.000=Song Start;
#BGCHANGES:;
#KEYSOUNDS:;
#ATTACKS:
;

//---------------dance-single - ----------------
#NOTEDATA:;
#CHARTNAME:;
#STEPSTYPE:dance-single;
#DESCRIPTION:;
#CHARTSTYLE:;
#DIFFICULTY:Beginner;
#METER:5;
#RADARVALUES:0.215555,0.330763,0.015883,0.039707,0.000000,190.000000,188.000000,2.000000,5.000000,0.000000,0.000000,0.000000,0.000000,0.000000,0.215555,0.330763,0.015883,0.039707,0.000000,190.000000,188.000000,2.000000,5.000000,0.000000,0.000000,0.000000,0.000000,0.000000;
#CREDIT:;
#NOTES:
0000
0000
0000
0000
,
1000
0000
0001
0000
,
0010
0000
0100
0000
,
1000
0000
0001
0000
,
0010
0000
0000
0000
,
1000
0000
0010
0000
,
0001
0000
1000
0000
,
0010
0000
0100
0000
,
0001
0000
0000
0000
,
1000
0000
0001
0000
,
0100
0000
0000
0000
,
0010
0000
0001
0000
,
1000
0000
0000
0000
,
1000
0000
0001
0000
,
0100
0000
0000
0000
,
0010
0000
1000
0000
,
0001
0000
0000
0000
,
0010
0000
0001
0000
,
1000
0000
0000
0000
,
0100
0000
0001
0000
,
0010
0000
0000
0000
,
1000
0000
0001
0000
,
0100
0000
0000
0000
,
0010
0000
0001
0000
,
1000
0000
0000
0000
,
0010
0000
0001
0000
,
0010
0000
0000
0000
,
1000
0000
0001
0000
,
0010
0000
0100
0000
,
0001
0000
1000
0000
,
0010
0000
0000
0000
,
1000
0000
0001
0000
,
0100
0000
0010
0000
,
1000
0000
0001
0000
,
0010
0000
0000
0000
,
0100
0000
0001
0000
,
1000
0000
0010
0000
,
1000
0000
0001
0000
,
0010
0000
0000
0000
,
0001
0000
1000
0000
,
0010
0000
0000
0000
,
0100
0000
0001
0000
,
0010
0000
0000
0000
,
1000
0000
0001
0000
,
0010
0000
0000
0000
,
0100
0000
0001
0000
,
1000
0000
0000
0000
,
2002
0000
0000
3003
,
0001
1000
0001
0000
,
1000
0001
0010
0000
,
1000
0000
0001
0000
,
0100
0010
0001
0000
,
1000
0000
0010
0000
,
0100
0001
1000
0000
,
0010
0000
1000
0000
,
0001
0100
0010
0000
,
0001
0000
1000
0000
,
0001
0000
0100
0000
,
0010
0000
1000
0001
,
0010
0000
1000
0000
,
0010
0000
1000
0000
,
0001
0000
0100
0000
,
0001
0000
0000
0000
,
1000
0010
0100
0000
,
0001
0000
1000
0000
,
0010
0000
0000
0000
,
0100
0000
0001
0000
,
1000
0000
0000
0000
,
0010
0000
1000
0000
,
0010
0000
0000
0000
,
0100
0000
0001
0000
,
0100
0000
0000
0000
,
0020
0000
0000
0030
,
1000
0000
0001
0000
,
0100
0000
0000
0000
,
1000
0000
0001
0000
,
0010
0000
0000
0000
,
0100
0000
0001
0000
,
0010
0000
0000
0000
,
1000
0000
0000
0000
,
0001
0000
0000
0000
,
0100
0000
0000
0000
,
0010
0000
1000
0000
,
0001
0000
0000
0000
,
0010
0000
0000
0000
,
0100
0000
0001
0000
,
1000
0000
0000
0000
,
0010
0000
0000
0000
,
1000
0000
0000
0000
,
0001
0000
0000
0000
,
0100
0000
0010
0000
,
0001
0000
0000
0000
,
1000
0000
0000
0000
,
0010
0000
1000
0000
,
0001
0000
0000
0000
,
0100
0000
0001
0000
,
1000
0000
0000
0000
,
0010
0000
0000
0000
,
1000
0000
0001
0000
,
0100
0000
0000
0000
,
1000
0000
0010
0000
,
0100
0000
0001
0000
,
1000
0000
0000
0000
,
0010
0000
0100
0000
,
0001
0000
1000
0000
,
0010
0000
0000
0000
,
0100
0000
0000
0000
,
0001
0000
1000
0000
,
0010
0000
0000
0000
,
1000
0000
0000
0000
,
0001
0000
0100
0000
,
0010
0000
0000
0000
,
1000
0000
0000
0000
,
0010
0000
0000
0000
,
1000
0000
0000
0000
,
0001
0000
0000
0000
,
1000
0000
0010
0000
,
0100
0000
0000
2002
,
0000
0000
0000
0000
,
3003
0000
0000
0000
;

//---------------dance-single - ----------------
#NOTEDATA:;
#CHARTNAME:;
#STEPSTYPE:dance-single;
#DESCRIPTION:;
#CHARTSTYLE:;
#DIFFICULTY:Easy;
#METER:9;
#RADARVALUES:0.386864,0.661526,0.063532,0.055590,0.023824,341.000000,333.000000,8.000000,7.000000,0.000000,0.000000,0.000000,0.000000,0.000000,0.386864,0.661526,0.063532,0.055590,0.023824,341.000000,333.000000,8.000000,7.000000,0.000000,0.000000,0.000000,0.000000,0.000000;
#CREDIT:;
#NOTES:
// measure 0
0000
0000
0000
0000
,  // measure 1
0001
1000
0010
0000
,  // measure 2
0100
0000
0001
0000
,  // measure 3
1000
0010
0100
0001
,  // measure 4
1000
0000
0001
0000
,  // measure 5
1000
0010
0100
0000
,  // measure 6
0001
0010
0001
0000
,  // measure 7
1000
0010
0100
0001
,  // measure 8
0010
0000
0000
0000
,  // measure 9
1000
0000
0001
0010
,  // measure 10
0100
0000
0001
0000
,  // measure 11
1000
0010
1000
0000
,  // measure 12
0001
0000
0100
0000
,  // measure 13
0010
0001
0010
0000
,  // measure 14
1000
0000
0001
0000
,  // measure 15
1000
0010
0100
0000
,  // measure 16
0001
0000
1000
0000
,  // measure 17
1000
0001
0100
0010
,  // measure 18
1000
0001
0100
0010
,  // measure 19
1000
0001
0100
0010
,  // measure 20
1000
0000
0001
0000
0010
0001
0010
0000
,  // measure 21
0100
0001
1000
0000
,  // measure 22
0010
0100
0001
1000
,  // measure 23
0010
0100
0001
1000
,  // measure 24
0010
0001
0010
0000
1000
0010
0100
0000
,  // measure 25
0001
0000
1000
0000
,  // measure 26
0001
0100
0010
0000
,  // measure 27
0001
0000
1000
0001
,  // measure 28
0010
0001
0010
0000
1000
0000
0000
0000
,  // measure 29
0100
0001
1000
0010
,  // measure 30
1000
0010
1000
0000
0001
0000
0000
0000
,  // measure 31
0100
0010
0001
1000
,  // measure 32
0001
0100
0001
0000
1000
0000
0010
0000
,  // measure 33
0100
0000
1000
0001
,  // measure 34
1000
0010
1000
0000
0100
0001
0100
0000
,  // measure 35
0010
1000
0001
0000
,  // measure 36
0010
0001
0010
0000
,  // measure 37
1000
0010
0100
0000
,  // measure 38
0001
1000
0010
0000
,  // measure 39
0010
0001
1000
0010
,  // measure 40
0100
0000
0001
1000
,  // measure 41
0010
0000
0100
0000
,  // measure 42
0001
1000
0010
0000
,  // measure 43
0100
0001
1000
0010
,  // measure 44
0001
0010
0001
0000
1000
0000
0010
0000
,  // measure 45
0100
0001
1000
0010
,  // measure 46
0010
0100
0010
0000
0010
0000
1000
0001
,  // measure 47
0200
0000
0300
1010
,  // measure 48
0001
0000
0000
1000
0000
0000
0010
0000
0001
0010
0000
0000
,  // measure 49
1000
0000
0000
0010
0000
0000
0100
0000
1000
0001
0000
0000
,  // measure 50
0100
0010
1000
0001
,  // measure 51
0010
0000
1000
0001
,  // measure 52
0100
0000
0010
1000
,  // measure 53
0001
0000
0010
1000
,  // measure 54
0010
0000
0100
0001
,  // measure 55
1000
0000
0001
0010
,  // measure 56
1000
0000
0001
0100
0000
0000
0010
0000
0000
1000
0000
0000
,  // measure 57
1000
0000
0010
0100
0000
0000
0001
0000
0000
0010
0000
0000
,  // measure 58
1000
0000
0001
0100
,  // measure 59
0010
0000
1000
0001
,  // measure 60
0010
0000
0001
0010
0000
0000
1000
0000
0000
0010
0000
0000
,  // measure 61
1000
0000
0010
1000
0000
0000
0100
0000
0000
0001
0000
0000
,  // measure 62
0010
0000
1000
0001
,  // measure 63
0100
0000
0010
0001
,  // measure 64
1000
0000
0001
0100
,  // measure 65
0001
0000
1000
0010
,  // measure 66
1000
0100
0001
0010
,  // measure 67
1000
0000
0010
0100
,  // measure 68
0001
0000
1000
0000
,  // measure 69
0001
0100
0010
0000
,  // measure 70
0001
0100
0010
1000
,  // measure 71
0101
1010
0110
1001
,  // measure 72
0220
0000
0000
0000
0000
0000
0000
0330
,  // measure 73
0001
0000
0001
0000
,  // measure 74
0001
0000
1000
0000
,  // measure 75
0010
0000
0100
0000
,  // measure 76
0001
1000
0010
0000
,  // measure 77
0100
0000
0001
0000
,  // measure 78
0010
0000
0000
0000
,  // measure 79
1000
0000
0001
0000
,  // measure 80
0100
0010
1000
0000
,  // measure 81
0001
0000
0010
0000
,  // measure 82
0001
0000
0100
0000
,  // measure 83
0001
0000
1000
0000
,  // measure 84
1000
0001
0100
0000
,  // measure 85
0010
0000
0001
0000
,  // measure 86
0010
0000
1000
0000
,  // measure 87
0001
0010
0001
0000
,  // measure 88
1000
0010
0100
0000
,  // measure 89
0001
0000
0000
0000
,  // measure 90
1000
0000
0001
0000
,  // measure 91
0100
0000
0000
0000
,  // measure 92
0010
0000
0001
0000
,  // measure 93
1000
0000
0000
0000
,  // measure 94
0010
0000
0100
0000
,  // measure 95
0001
0000
0000
0000
,  // measure 96
1000
0000
0010
0100
,  // measure 97
0001
0000
1000
0000
,  // measure 98
0010
0000
0100
0000
,  // measure 99
0001
0000
0000
0000
,  // measure 100
1000
0000
0001
0000
,  // measure 101
0100
0000
0000
0000
,  // measure 102
0010
0000
1000
0000
,  // measure 103
0001
0000
0000
0000
,  // measure 104
0100
0000
0001
0000
,  // measure 105
1000
0000
0000
0000
,  // measure 106
0001
0000
0000
0000
,  // measure 107
0100
0000
0000
0000
,  // measure 108
0010
0000
0000
0000
,  // measure 109
1000
0000
0001
0000
,  // measure 110
0100
0000
0000
0000
,  // measure 111
0001
0000
1000
0000
,  // measure 112
0010
0000
0100
0000
,  // measure 113
1000
0001
0000
0000
0000
0000
0010
0100
,  // measure 114
0000
0000
2002
3003
,  // measure 115
0001
0000
1000
0000
,  // measure 116
0010
0100
0001
0000
,  // measure 117
1000
0000
0000
0001
0000
0000
0220
0000
,  // measure 118
0000
0000
0000
0000
,  // measure 119
0330
0000
0000
0000
;

//---------------dance-single - ----------------
#NOTEDATA:;
#CHARTNAME:;
#STEPSTYPE:dance-single;
#DESCRIPTION:;
#CHARTSTYLE:;
#DIFFICULTY:Hard;
#METER:17;
#RADARVALUES:0.896254,1.181296,0.270011,0.420899,0.416928,790.000000,756.000000,34.000000,53.000000,0.000000,0.000000,0.000000,0.000000,0.000000,0.896254,1.181296,0.270011,0.420899,0.416928,790.000000,756.000000,34.000000,53.000000,0.000000,0.000000,0.000000,0.000000,0.000000;
#CREDIT:;
#NOTES:
// measure 0
0000
0000
0000
0000
,  // measure 1
1000
0100
1000
0000
1000
0100
0000
0001
,  // measure 2
0100
0000
1000
0100
0000
0001
0100
0000
,  // measure 3
1000
0010
0000
0001
0010
0000
1000
0100
,  // measure 4
1000
0000
0001
0100
0000
0010
0100
0001
,  // measure 5
0100
0001
0100
0000
0001
0100
0000
1000
,  // measure 6
0100
0000
0001
0100
0000
1000
0100
0000
,  // measure 7
0001
0010
0000
1000
0010
0000
0001
0100
,  // measure 8
0001
0000
1000
0100
0000
1000
0010
1000
,  // measure 9
0100
1000
0100
1000
0100
0000
1000
0010
,  // measure 10
1000
0010
1000
0000
1001
0000
0101
0000
,  // measure 11
0001
0100
0001
0100
0001
0000
1000
0001
,  // measure 12
1000
0001
1000
0000
1001
0000
0011
0000
,  // measure 13
0001
1000
0100
1000
0010
0000
1000
0001
,  // measure 14
1000
0010
1000
0000
1100
0000
1010
0000
,  // measure 15
0001
0100
0001
0010
0001
0000
1000
0010
,  // measure 16
1000
0100
1000
0000
1001
0000
0110
0000
,  // measure 17
0100
0001
0100
0010
0100
0000
0010
1000
,  // measure 18
0010
0100
0010
0000
1010
0000
0110
0000
,  // measure 19
0100
0001
0010
0001
0100
0000
0010
1000
,  // measure 20
0100
1000
0010
0000
1100
0000
0011
0000
,  // measure 21
1000
0100
0010
0001
0010
0000
0001
0010
,  // measure 22
0100
1000
0100
0000
1100
0000
1001
0000
,  // measure 23
0001
1000
0010
1000
0010
1000
0010
0100
,  // measure 24
0001
0100
0001
0100
0001
0010
0001
0010
,  // measure 25
0001
0010
0001
1000
0100
1000
0010
1000
,  // measure 26
0100
1000
0010
0100
0001
0100
0010
1000
,  // measure 27
0100
1000
0100
2000
0010
0000
0010
0000
,  // measure 28
0010
0010
0010
0010
,  // measure 29
3010
0100
0001
0100
0010
0100
0001
0010
,  // measure 30
0001
1000
0100
1000
0010
1000
0100
0010
,  // measure 31
0100
1000
0010
0200
0001
0000
0001
0000
,  // measure 32
0001
0001
0001
0001
,  // measure 33
0301
0010
0001
1000
0100
1000
0010
1000
,  // measure 34
0100
1000
0010
0100
0001
0100
0001
0010
,  // measure 35
0001
0001
1000
0002
0100
0000
0100
0000
,  // measure 36
0100
0100
0100
0100
,  // measure 37
0103
0010
1000
0100
1000
0010
1000
0100
,  // measure 38
0010
0100
1000
0010
0100
0001
0100
0010
,  // measure 39
1000
0100
1000
0020
1000
0000
1000
0000
,  // measure 40
1000
1000
1000
1000
,  // measure 41
1030
0000
1001
0000
0100
0001
0100
0000
,  // measure 42
1001
0000
0100
1000
0100
0000
1001
0000
,  // measure 43
0100
0001
0100
0001
0100
0001
0100
0000
,  // measure 44
0010
1000
0010
1000
0010
1000
0010
0000
,  // measure 45
1000
0100
1000
0100
1000
0100
1000
0000
,  // measure 46
0001
0100
0001
0100
0001
0010
0001
0010
,  // measure 47
0002
0000
0000
0000
,  // measure 48
1003
0000
1000
0001
0000
0001
0100
0010
0100
0001
0100
0010
,  // measure 49
1000
0000
1000
0100
0000
0100
1000
0010
0100
0001
0100
0010
,  // measure 50
0100
0000
0100
0001
0000
0001
0010
0001
0010
0001
0100
0001
,  // measure 51
0100
0000
0100
0010
0000
0010
0100
0001
0100
0010
1000
0100
,  // measure 52
1000
0000
1000
0010
0000
0010
0100
0001
0100
0010
0100
0001
,  // measure 53
0010
0000
0010
0001
0000
0001
1000
0100
1000
0001
0100
0010
,  // measure 54
1000
0000
1000
0010
0000
0010
0100
0001
0100
0010
0100
0010
,  // measure 55
1000
0000
1000
0001
0000
0001
0010
0001
0100
0001
0010
0001
,  // measure 56
0010
0001
0010
0001
0010
0001
0020
0000
0001
0000
0001
0000
,  // measure 57
0031
1000
0100
1000
0100
1000
0200
0000
1000
0000
1000
0000
,  // measure 58
1300
0100
1000
0100
1000
0010
0100
0001
0100
0001
0100
0010
,  // measure 59
1000
0100
1000
0010
0100
0001
0100
0010
1000
1000
0010
1000
,  // measure 60
0100
1000
0100
1000
0100
1000
0200
0000
1000
0000
1000
0000
,  // measure 61
1300
0001
0010
0001
0010
0001
0020
0000
0001
0000
0001
0000
,  // measure 62
0031
0100
0010
1000
0010
0100
0001
0100
0010
1000
0010
0100
,  // measure 63
0001
0010
0100
1000
0100
0010
0001
0010
0100
1000
0000
0000
,  // measure 64
1002
1000
1000
1003
,  // measure 65
2001
0001
0001
3001
,  // measure 66
0120
0100
0100
0130
,  // measure 67
0210
0010
0010
0310
,  // measure 68
2001
0010
0001
3010
,  // measure 69
1002
0100
1000
0103
,  // measure 70
2001
0100
0001
3100
,  // measure 71
1002
0010
1000
0013
,  // measure 72
2002
0000
0000
0000
0000
0000
3003
0000
1000
0100
1000
0100
1000
0100
1000
0000
,  // measure 73
1000
0100
0010
0100
1000
0010
0100
0010
,  // measure 74
1000
0100
0010
0100
1000
0010
0100
0000
,  // measure 75
0001
0100
0010
0100
0010
0100
0010
1000
,  // measure 76
0100
1000
0001
1000
0001
1000
0001
0000
,  // measure 77
0010
0001
0100
0001
0010
0001
0100
0001
,  // measure 78
0010
0001
1000
0100
1000
0010
0100
0000
,  // measure 79
0100
0010
1000
0100
1000
0001
0100
0001
,  // measure 80
1000
0100
1000
0001
0100
0001
1000
0000
,  // measure 81
0001
0100
0010
0100
0010
1000
0100
0010
,  // measure 82
0001
0010
0100
1000
0100
1000
0010
0000
,  // measure 83
0100
0001
0100
0001
1000
0010
1000
0010
,  // measure 84
1000
0100
1000
0100
0010
0001
0010
0000
,  // measure 85
0001
0100
0001
0100
0001
1000
0001
1000
,  // measure 86
0100
1000
0100
1000
0001
1000
0001
0000
,  // measure 87
1000
0010
0100
0010
1000
0100
0010
0100
,  // measure 88
1000
0010
0100
0010
1000
0100
0010
0100
,  // measure 89
2000
0001
3002
0100
,  // measure 90
0203
0010
0320
1000
,  // measure 91
2030
0100
3200
0010
,  // measure 92
0320
0001
0032
0100
,  // measure 93
0203
0010
0320
0100
,  // measure 94
0230
0001
0302
1000
,  // measure 95
2003
0100
3200
1000
,  // measure 96
2300
0010
3020
0100
,  // measure 97
0230
0001
0302
0010
,  // measure 98
0023
0001
0032
1000
,  // measure 99
2003
0100
3200
1000
,  // measure 100
2300
0010
3020
0100
,  // measure 101
0230
0001
0302
0100
,  // measure 102
0203
0010
0320
1000
,  // measure 103
2030
0100
3200
0010
,  // measure 104
0320
0001
0032
1000
,  // measure 105
1003
0100
1000
0100
1000
0100
1000
0100
,  // measure 106
1000
0100
1000
0100
1000
0000
1001
0000
,  // measure 107
0001
0100
0001
0100
0001
0100
0001
0100
,  // measure 108
0001
0100
0001
0100
0001
0000
1001
0000
,  // measure 109
1000
0010
1000
0010
1000
0010
1000
0010
,  // measure 110
1000
0010
1000
0010
1000
0000
1001
0000
,  // measure 111
0001
0010
0001
0010
0001
0010
0001
0010
,  // measure 112
0001
0010
0001
0010
0001
0000
1001
0000
,  // measure 113
1000
0100
0000
0000
0000
0000
0001
0100
,  // measure 114
0000
0000
0000
0000
1000
0100
0000
0000
,  // measure 115
1001
0100
1001
0100
,  // measure 116
1001
0000
1000
0100
0010
0001
0010
0100
,  // measure 117
1000
0100
0010
0001
0010
0000
2002
0000
,  // measure 118
0000
0000
0000
0000
,  // measure 119
3003
0000
0000
0000
;

//---------------dance-single - ----------------
#NOTEDATA:;
#CHARTNAME:;
#STEPSTYPE:dance-single;
#DESCRIPTION:;
#CHARTSTYLE:;
#DIFFICULTY:Medium;
#METER:13;
#RADARVALUES:0.555904,0.756030,0.301777,0.349425,0.023824,490.000000,452.000000,38.000000,44.000000,0.000000,0.000000,0.000000,0.000000,0.000000,0.555904,0.756030,0.301777,0.349425,0.023824,490.000000,452.000000,38.000000,44.000000,0.000000,0.000000,0.000000,0.000000,0.000000;
#CREDIT:;
#NOTES:
// measure 0
0000
0000
0000
0000
,  // measure 1
0001
1000
0010
0000
,  // measure 2
0100
0000
0001
0000
,  // measure 3
1000
0010
0100
0001
,  // measure 4
1000
0000
0001
0000
,  // measure 5
1000
0010
0100
0000
,  // measure 6
0001
0010
0001
0000
,  // measure 7
1000
0100
0001
0010
,  // measure 8
1000
0100
0001
0010
,  // measure 9
1000
0100
1000
0100
1000
0000
1000
0010
,  // measure 10
1000
0010
1000
0000
1001
0000
0101
0000
,  // measure 11
0001
0100
0001
0100
0001
0000
1000
0001
,  // measure 12
1000
0001
1000
0000
1001
0000
0011
0000
,  // measure 13
0001
1000
0100
1000
0010
0000
1000
0001
,  // measure 14
1000
0010
1000
0000
1100
0000
1010
0000
,  // measure 15
0001
0100
0001
0010
0001
0000
1000
0010
,  // measure 16
1000
0100
1000
0000
1001
0000
0110
0000
,  // measure 17
0100
0001
0100
0010
0100
0000
0010
1000
,  // measure 18
0010
0100
0010
0000
1010
0000
0110
0000
,  // measure 19
0100
0001
0010
0001
0100
0000
0010
1000
,  // measure 20
0100
1000
0010
0000
1100
0000
0011
0000
,  // measure 21
1000
0100
0010
0001
0010
0000
0001
0010
,  // measure 22
0100
1000
0100
0000
1100
0000
1001
0000
,  // measure 23
2001
0001
0001
3001
,  // measure 24
0102
0100
0100
0103
,  // measure 25
2010
0010
0010
3010
,  // measure 26
1002
1000
1000
1003
,  // measure 27
0001
0000
1000
0001
,  // measure 28
0010
0001
0010
0000
0001
0000
0000
0000
,  // measure 29
0100
0001
1000
0010
,  // measure 30
1000
0010
1000
0000
0001
0000
0000
0000
,  // measure 31
0100
0010
1000
0001
,  // measure 32
0001
0100
0001
0000
1000
0000
0010
0000
,  // measure 33
0100
0000
0001
0001
,  // measure 34
1000
0010
1000
0000
0001
0100
0001
0000
,  // measure 35
1000
1000
0001
0000
,  // measure 36
0010
0001
0010
0000
,  // measure 37
1000
0010
0100
0000
,  // measure 38
0001
1000
0010
0000
,  // measure 39
0010
1000
0100
0010
,  // measure 40
0001
0000
0001
1000
,  // measure 41
0010
0000
0100
0000
,  // measure 42
0001
1000
0010
0000
,  // measure 43
0100
0001
1000
0010
,  // measure 44
0001
0010
0001
0000
1000
0000
0010
0000
,  // measure 45
0100
0001
1000
0010
,  // measure 46
0010
0100
0010
0000
0010
0000
1000
0000
,  // measure 47
2002
0000
0000
3003
,  // measure 48
0001
0000
0000
1000
0000
0000
0010
0000
1000
0010
0000
0000
,  // measure 49
1000
0000
0000
0010
0000
0000
0100
0000
0010
1000
0000
0000
,  // measure 50
0100
0010
0001
0001
,  // measure 51
0010
0001
1000
0001
,  // measure 52
0100
0100
0010
1000
,  // measure 53
0001
1000
0010
1000
,  // measure 54
0010
1001
0100
0001
,  // measure 55
1000
1001
0001
1000
,  // measure 56
0001
0000
0001
0100
0000
0000
0010
0000
0000
1000
0000
0000
,  // measure 57
1000
0000
0010
0100
0000
0000
0001
0000
0000
0010
0000
0000
,  // measure 58
1001
0100
0001
0100
,  // measure 59
0010
1000
1000
0001
,  // measure 60
0010
0000
0001
0010
0000
0000
0001
0000
0000
1000
0000
0000
,  // measure 61
0001
0000
1000
0010
0000
0000
0100
0000
0000
0001
0000
0000
,  // measure 62
0010
0001
1000
0001
,  // measure 63
0100
0100
0010
1001
,  // measure 64
1000
1000
0001
0100
,  // measure 65
0001
0001
1000
0010
,  // measure 66
1000
0100
0001
0010
,  // measure 67
1000
0100
0010
0001
,  // measure 68
0001
1000
1000
0001
,  // measure 69
0001
0100
0010
0100
,  // measure 70
0001
0100
0010
1000
,  // measure 71
0101
1010
0110
1001
,  // measure 72
0220
0000
0000
0330
,  // measure 73
0001
0000
0001
0000
,  // measure 74
0001
0000
1000
0000
,  // measure 75
0010
0000
0100
0000
,  // measure 76
0001
1000
0010
0000
,  // measure 77
0100
0000
0001
0000
,  // measure 78
0010
0000
0000
0000
,  // measure 79
1000
0000
0001
0000
,  // measure 80
0100
0010
1000
0000
,  // measure 81
0001
0000
0010
0000
,  // measure 82
0001
0000
0100
0000
,  // measure 83
0001
0000
1000
0000
,  // measure 84
1000
0001
0100
0000
,  // measure 85
0010
0000
0001
0000
,  // measure 86
0010
0000
1000
0000
,  // measure 87
0001
0010
0001
0000
,  // measure 88
1000
0000
0010
0000
0100
0010
0100
0010
,  // measure 89
2000
0001
3002
0000
,  // measure 90
0203
0010
0320
0000
,  // measure 91
2030
0100
3200
0000
,  // measure 92
0320
0001
0032
0000
,  // measure 93
0203
0010
0320
0000
,  // measure 94
0230
0001
0302
0000
,  // measure 95
2003
0100
3200
0000
,  // measure 96
2300
0010
3020
0000
,  // measure 97
0230
0001
0302
0000
,  // measure 98
0023
0001
0032
0000
,  // measure 99
2003
0100
3200
0000
,  // measure 100
2300
0010
3020
0000
,  // measure 101
0230
0001
0302
0000
,  // measure 102
0203
0010
0320
0000
,  // measure 103
2030
0100
3200
0000
,  // measure 104
0320
0001
0032
0000
,  // measure 105
1003
0100
1000
0100
1000
0000
1000
0000
,  // measure 106
1000
0100
1000
0100
1000
0000
1001
0000
,  // measure 107
0001
0100
0001
0100
0001
0000
0001
0000
,  // measure 108
0001
0100
0001
0100
0001
0000
1001
0000
,  // measure 109
1000
0010
1000
0010
1000
0000
1000
0000
,  // measure 110
1000
0010
1000
0010
1000
0000
1001
0000
,  // measure 111
0001
0010
0001
0010
0001
0000
0001
0000
,  // measure 112
0001
0010
0001
0010
0001
0000
1001
0000
,  // measure 113
2000
0000
3000
0002
,  // measure 114
0000
0003
1001
0000
,  // measure 115
0110
0000
1001
0000
,  // measure 116
0110
0000
1001
0000
,  // measure 117
1000
0001
1000
0001
0100
0000
2002
0000
,  // measure 118
0000
0000
0000
0000
,  // measure 119
3003
0000
0000
0000
;
