#TITLE:A change of probability;
#SUBTITLE:;
#ARTIST:18times per 1,000;
#TITLETRANSLIT:;
#SUBTITLETRANSLIT:;
#ARTISTTRANSLIT:;
#GENRE:;
#CREDIT:;
#BANNER:;
#BACKGROUND:DDR CD-bg.JPG;
#LYRICSPATH:;
#CDTITLE:;
#MUSIC:A change of probability.mp3;
#OFFSET:-1.263000;
#SAMPLESTART:32.759998;
#SAMPLELENGTH:12.000000;
#SELECTABLE:YES;
#BPMS:0.000000=150.000000
;
#STOPS:
;
#BGCHANGES:;
#KEYSOUNDS:;
#ATTACKS:;

//---------------dance-single - ----------------
#NOTES:
     dance-single:
     :
     Hard:
     13:
     0.487399,0.575213,0.134787,0.202180,0.248513,405.000000,389.000000,16.000000,24.000000,0.000000,0.000000,0.487399,0.575213,0.134787,0.202180,0.248513,405.000000,389.000000,16.000000,24.000000,0.000000,0.000000:
// measure 0
0000
0000
0000
0000
,  // measure 1
0000
0000
0000
0000
,  // measure 2
0000
0000
0000
0000
,  // measure 3
0000
0000
0000
0000
,  // measure 4
0010
0000
0000
0010
0000
0000
0010
0000
0000
0100
0000
0000
0010
0000
0100
0000
,  // measure 5
0100
0000
0000
0100
0000
0000
0100
0000
0000
0001
0000
0000
0100
0000
0001
0000
,  // measure 6
1000
0000
0000
1000
0000
0000
1000
0000
0000
0010
0000
0000
0100
0000
0001
0000
,  // measure 7
0010
0000
0000
0010
0000
0000
0010
0000
0000
0001
0000
0000
1000
0000
0100
0000
,  // measure 8
1000
0001
0100
0001
1000
0010
1000
0001
,  // measure 9
0100
0001
0010
0001
0010
0001
1000
0100
,  // measure 10
1000
0010
0100
0010
1000
0010
1000
0010
,  // measure 11
1000
0000
0100
0000
1000
0000
0001
0000
0101
0000
0000
0000
0100
0001
1000
0010
,  // measure 12
0100
0001
0010
0001
0100
0001
0010
0001
,  // measure 13
0100
0010
1000
0010
0100
0010
1000
0010
,  // measure 14
1000
0000
0100
0000
1000
0000
0010
0000
0100
0000
0010
0000
1000
0000
0001
0100
,  // measure 15
0010
1000
0100
1000
0010
0100
0001
0010
,  // measure 16
0001
0010
0001
0100
0010
0100
0001
0001
,  // measure 17
1000
0100
1000
0010
0100
0100
0010
1000
,  // measure 18
0010
0000
1000
0000
1000
0000
0001
0000
0100
0000
0010
0000
0010
0000
0100
0020
,  // measure 19
0200
0000
0000
0000
0000
0000
0000
0000
0300
0000
0000
0000
0130
0001
0100
0010
,  // measure 20
1000
0000
0000
0100
0000
0000
1000
0000
0000
0100
0000
0000
1000
0000
0010
0000
,  // measure 21
0100
0000
0000
0001
0000
0000
0100
0000
0000
0010
0000
0000
0100
0000
0010
0000
,  // measure 22
1000
0000
0000
0100
0000
0000
2000
0000
0001
0000
0000
0000
0010
0000
0000
0000
,  // measure 23
0001
0000
0010
0000
0001
0000
0010
3000
,  // measure 24
0001
0000
0000
0100
0000
0000
0010
0000
0000
0100
0000
0000
0010
0000
1000
0000
,  // measure 25
0100
0000
0000
1000
0000
0000
0010
0000
0000
0100
0000
0000
0001
0000
0010
0000
,  // measure 26
0001
0000
0000
0001
0000
0000
0002
0000
0000
0000
0000
0000
1003
0000
1000
0000
,  // measure 27
2000
0000
0000
0010
0000
0000
3010
0000
0020
0000
0000
0100
0000
0000
0100
0000
,  // measure 28
0100
1000
0100
0001
,  // measure 29
0100
1000
0100
0001
,  // measure 30
0200
0000
0330
0110
,  // measure 31
2002
0000
0000
0000
0000
0000
3003
0100
,  // measure 32
0001
0000
0000
0010
0000
0000
1000
0000
0100
0000
0000
0001
0000
0000
0010
0000
,  // measure 33
1000
0000
0000
0100
0000
0000
0001
0000
0010
0000
0000
1000
0000
0000
0100
0000
,  // measure 34
0001
0000
0000
0100
0000
0000
1000
0000
0010
0000
0000
0001
0000
0000
0100
0000
,  // measure 35
1000
0000
0000
0010
0000
0000
0001
0000
0100
0000
0000
0000
0110
0000
0000
0000
,  // measure 36
1001
0000
0000
0100
0000
0000
0001
0000
0100
0000
0000
0010
0000
0000
1000
0000
,  // measure 37
0010
0000
0000
1000
0000
0000
0100
0000
1000
0000
0000
0001
0000
0000
0100
0000
,  // measure 38
0001
0000
0000
0001
0000
0000
0002
0000
0000
0000
0000
0000
1000
0000
1003
0000
,  // measure 39
1000
0000
0000
1000
0000
0000
2000
0000
0000
0000
0000
0000
0000
0000
3001
0000
,  // measure 40
0001
0000
0000
0100
0000
0000
0010
0000
1000
0000
0010
0000
0100
0000
0001
0000
,  // measure 41
0100
0000
0000
0010
0000
0000
1000
0010
0200
0000
0000
0000
0300
0000
0000
0000
,  // measure 42
1001
0000
0000
0100
0000
0000
0100
0000
0000
0000
0100
0000
0010
0000
1000
0000
,  // measure 43
0100
1000
0001
0100
0001
0100
0010
1000
,  // measure 44
0100
1000
0100
1000
0010
0100
0001
0100
,  // measure 45
0010
1000
0100
1000
0100
0010
0001
1000
,  // measure 46
0001
0000
0000
0010
0000
0000
1000
0000
0100
0000
0000
0001
0000
0000
0010
0000
,  // measure 47
1000
0000
0000
0100
0000
0000
0001
0000
0010
0000
0000
1000
0000
0000
0100
0000
,  // measure 48
0001
0000
0000
0100
0000
0000
1000
0000
0010
0000
0000
0001
0000
0000
0100
0000
,  // measure 49
1000
0000
0000
0010
0000
0000
0001
0000
0100
0000
0000
0000
0110
0000
0000
0000
,  // measure 50
1001
0000
0000
0100
0000
0000
0001
0000
0100
0000
0000
0010
0000
0000
1000
0000
,  // measure 51
0010
0000
0000
1000
0000
0000
0100
0000
0000
0000
1000
0000
0001
0000
0200
0000
,  // measure 52
0000
0000
0000
0000
0000
0000
0000
0000
0310
0000
0000
0010
0000
0000
1000
0000
,  // measure 53
0002
0000
0000
0200
0000
0003
0000
0010
,  // measure 54
0320
0000
0000
0000
0000
0000
0000
0000
1000
0000
0000
1000
0000
0000
2030
0000
,  // measure 55
3002
0000
0000
0200
0000
0000
0000
0000
,  // measure 56
0000
0000
0000
0000
0303
0000
0000
0000
1000
0000
0000
1000
0000
0000
2000
0000
,  // measure 57
0000
0000
0000
0000
,  // measure 58
0000
0000
0000
0000
3000
0000
0000
0000
0001
0000
0000
0001
0000
0000
0002
0000
,  // measure 59
0000
0000
0000
0000
0000
0000
0003
0100
,  // measure 60
1001
0001
0100
0010
1000
0100
1000
0010
,  // measure 61
0100
0001
0100
0010
1000
0100
1000
0010
,  // measure 62
0100
0010
1000
0010
0100
0001
0100
0010
,  // measure 63
0100
0001
0100
0010
1000
0100
1000
0001
,  // measure 64
0100
0010
0100
0010
1000
0100
0010
0001
,  // measure 65
0010
0100
1000
0001
0100
0010
0100
0001
,  // measure 66
2002
0000
0000
0000
,  // measure 67
0000
0000
0000
3003
,  // measure 68
1000
1000
0001
0001
0100
0100
0010
0010
,  // measure 69
0110
1001
0110
1001
,  // measure 70
0120
1000
0100
0001
,  // measure 71
0100
0000
0000
0000
0130
0000
0000
0000
1001
0000
1000
0001
1000
0001
0100
0000
;

//---------------dance-single - ----------------
#NOTES:
     dance-single:
     :
     Medium:
     9:
     0.352612,0.485232,0.244301,0.235877,0.096878,293.000000,264.000000,29.000000,28.000000,0.000000,0.000000,0.352612,0.485232,0.244301,0.235877,0.096878,293.000000,264.000000,29.000000,28.000000,0.000000,0.000000:
// measure 0
0000
0000
0000
0000
,  // measure 1
0000
0000
0000
0000
,  // measure 2
0000
0000
0000
0000
,  // measure 3
0000
0000
0000
0000
,  // measure 4
1000
0000
1000
0000
1000
1000
1000
0000
,  // measure 5
0001
0000
0001
0000
0001
0001
0001
0000
,  // measure 6
0100
0000
0100
0000
0100
0100
0100
0000
,  // measure 7
0010
0000
0010
0000
0010
0010
0010
0000
,  // measure 8
1000
0000
0010
0000
0100
0001
0100
0000
,  // measure 9
0001
0000
0100
0000
0010
1000
0010
0000
,  // measure 10
1000
0000
0001
0000
0100
0010
0100
0000
,  // measure 11
0010
0000
0100
0000
0001
1000
0001
0000
,  // measure 12
1001
0000
0100
0000
0100
0100
0100
0000
,  // measure 13
1001
0000
0010
0000
0010
0010
0010
0000
,  // measure 14
1000
1000
0001
0001
,  // measure 15
1000
0001
1000
0001
,  // measure 16
0110
0000
0001
0000
0001
0001
0001
0000
,  // measure 17
0110
0000
1000
0000
1000
1000
1000
0000
,  // measure 18
0010
0100
0001
1000
,  // measure 19
2002
0000
0000
3003
,  // measure 20
1000
0000
0000
1000
0000
0000
1000
0000
0000
1000
0000
0000
1000
0000
1000
0000
,  // measure 21
0001
0000
0000
0001
0000
0000
0001
0000
0000
0001
0000
0000
0001
0000
0001
0000
,  // measure 22
0100
0000
0000
0100
0000
0000
0200
0000
0000
0000
0000
0000
0000
0000
0000
0000
,  // measure 23
0010
0010
0010
0310
,  // measure 24
0001
0000
0000
0001
0000
0000
0001
0000
0000
0001
0000
0000
0001
0000
0001
0000
,  // measure 25
1000
0000
0000
1000
0000
0000
1000
0000
0000
1000
0000
0000
1000
0000
1000
0000
,  // measure 26
0010
0000
0000
0010
0000
0000
0020
0000
0000
0000
0000
0000
0100
0000
0100
0000
,  // measure 27
0100
0000
0000
0100
0000
0000
0100
0000
0100
0000
0000
0100
0000
0000
0100
0000
,  // measure 28
0200
0000
0000
0000
,  // measure 29
0000
0000
0000
0000
,  // measure 30
0330
0110
1001
0110
,  // measure 31
1001
0100
0100
0100
,  // measure 32
1001
0000
0100
0000
1000
0100
1000
0000
,  // measure 33
0010
0000
0100
0000
0001
0100
0001
0000
,  // measure 34
0010
0000
0001
0000
0100
0010
0100
0000
,  // measure 35
0010
0000
1000
0000
0100
1000
0100
0000
,  // measure 36
1000
0000
0010
0000
0100
0001
0100
0000
,  // measure 37
0001
0000
0010
0000
0001
0010
0001
0000
,  // measure 38
1000
0000
0000
1000
0000
0000
2000
0000
0000
0000
0000
0000
3000
0000
0000
0000
,  // measure 39
0001
0000
0000
0001
0000
0000
0002
0000
0000
0000
0000
0000
0003
0000
0000
0000
,  // measure 40
0100
0000
0000
0100
0000
0000
0100
0000
0100
0000
0000
0100
0000
0000
0100
0000
,  // measure 41
0100
0000
0000
0100
0000
0000
0100
0000
0200
0000
0000
0000
0300
0000
0000
0000
,  // measure 42
0010
0000
0000
0010
0000
0000
0020
0000
0000
0000
0000
0000
0030
0000
0000
0000
,  // measure 43
0100
0000
0000
0100
0000
0000
0200
0000
0000
0000
0000
0000
0300
0000
0000
0000
,  // measure 44
0001
0001
0001
0001
,  // measure 45
0001
0100
1000
0100
,  // measure 46
0001
1001
0001
0100
,  // measure 47
0010
1010
1000
0100
,  // measure 48
1000
1010
0100
0001
,  // measure 49
0010
0011
0001
0100
,  // measure 50
0010
0110
0010
1000
,  // measure 51
0100
0000
0000
0100
0000
0000
0100
0000
0000
0000
0010
0000
1000
0000
0002
0000
,  // measure 52
0000
0000
0100
0100
,  // measure 53
0100
0000
0000
0200
0000
0003
0000
0010
,  // measure 54
0320
0000
0000
0000
0000
0000
0000
0000
1000
0000
0000
1000
0000
0000
1000
0000
,  // measure 55
2030
0000
0000
0200
0000
0000
0000
0000
,  // measure 56
0300
0000
0000
0000
3000
0000
0000
0000
0001
0000
0000
0001
0000
0000
0002
0000
,  // measure 57
0000
0000
0000
0003
,  // measure 58
0000
0000
0000
0000
0000
0000
0000
0000
1000
0000
0000
1000
0000
0000
2000
0000
,  // measure 59
0000
0000
3010
0000
0010
0100
0010
0100
,  // measure 60
0001
0101
0001
1100
,  // measure 61
1000
0101
0001
1100
,  // measure 62
1000
0010
0100
0001
,  // measure 63
1000
0100
1000
0010
,  // measure 64
0200
0000
0302
0000
,  // measure 65
0023
0000
0032
0000
,  // measure 66
2000
0000
0000
0000
,  // measure 67
0000
0000
0000
3003
,  // measure 68
1000
0110
0001
0110
,  // measure 69
1001
0110
1001
0110
,  // measure 70
2002
0000
0000
3003
,  // measure 71
0220
0330
0110
0220
,  // measure 72
0330
0000
0000
0000
;

//---------------dance-single - ----------------
#NOTES:
     dance-single:
     :
     Easy:
     7:
     0.287625,0.423104,0.261149,0.328543,0.008424,239.000000,208.000000,31.000000,39.000000,0.000000,0.000000,0.287625,0.423104,0.261149,0.328543,0.008424,239.000000,208.000000,31.000000,39.000000,0.000000,0.000000:
// measure 0
0000
0000
0000
0000
,  // measure 1
0000
0000
0000
0000
,  // measure 2
0000
0000
0000
0000
,  // measure 3
0000
0000
0000
0000
,  // measure 4
1000
1000
2000
3001
,  // measure 5
0001
0001
0002
1003
,  // measure 6
0100
0100
0200
0310
,  // measure 7
0010
0010
0020
0130
,  // measure 8
1000
0010
0102
0103
,  // measure 9
0001
0100
2010
3010
,  // measure 10
1000
0001
0120
0130
,  // measure 11
0010
0100
2001
3001
,  // measure 12
1001
0100
0210
0310
,  // measure 13
1001
0010
0120
0130
,  // measure 14
1000
1000
0001
0001
,  // measure 15
1000
0001
1000
0001
,  // measure 16
0110
0001
1002
1003
,  // measure 17
0110
1000
2001
3001
,  // measure 18
0010
0100
0001
1000
,  // measure 19
2002
0000
0000
3003
,  // measure 20
1000
0001
0100
1001
,  // measure 21
0001
1000
0100
1001
,  // measure 22
1000
0001
0100
0010
,  // measure 23
0100
0010
0010
0010
,  // measure 24
1000
0001
1000
0100
,  // measure 25
1000
0001
1000
0001
,  // measure 26
0100
0100
0001
0001
,  // measure 27
1000
0010
1000
0010
,  // measure 28
2002
0000
0000
0000
,  // measure 29
0000
0000
0000
3003
,  // measure 30
0220
0000
0000
0330
,  // measure 31
0100
0100
0100
0100
,  // measure 32
1001
0100
1000
1000
,  // measure 33
0010
0100
0001
0001
,  // measure 34
0010
0001
0100
0100
,  // measure 35
0010
1000
0100
0100
,  // measure 36
1000
0010
0100
0100
,  // measure 37
0001
0010
0001
0001
,  // measure 38
2000
0000
0000
3000
,  // measure 39
0002
0000
0000
0003
,  // measure 40
0200
0000
0010
0000
,  // measure 41
0020
0000
0000
0330
,  // measure 42
0020
0000
0000
0030
,  // measure 43
0200
0000
0000
0300
,  // measure 44
0001
0001
0001
0001
,  // measure 45
0001
0100
1000
0100
,  // measure 46
0001
1001
0001
0100
,  // measure 47
0010
1010
1000
0100
,  // measure 48
1000
1010
0100
0001
,  // measure 49
0010
0011
0001
0100
,  // measure 50
0010
0110
0010
1000
,  // measure 51
0100
1001
1001
0100
,  // measure 52
2002
3000
0100
0100
,  // measure 53
0100
0000
0000
0200
0000
0003
0000
0000
,  // measure 54
0320
0000
0000
0000
0200
0000
0000
0300
,  // measure 55
2030
0000
0000
0200
0000
0000
0000
0000
,  // measure 56
0300
0000
0000
0000
3000
0000
0000
0000
0001
0000
0000
0001
0000
0000
0002
0000
,  // measure 57
0000
0000
0000
0003
,  // measure 58
0000
0000
0000
0000
0000
0000
0000
0000
1000
0000
0000
1000
0000
0000
2000
0000
,  // measure 59
0000
3000
0010
0100
,  // measure 60
0001
1001
1000
1001
,  // measure 61
0001
1001
1000
1001
,  // measure 62
0001
0100
0010
1000
,  // measure 63
0010
0100
0001
1000
,  // measure 64
0002
0000
0000
0003
,  // measure 65
2000
0000
0000
3000
,  // measure 66
2002
0000
0000
0000
,  // measure 67
0000
0000
0000
3003
,  // measure 68
1000
0100
0001
0010
,  // measure 69
1000
0100
0001
0010
,  // measure 70
2000
0000
0000
3000
,  // measure 71
0002
0000
0000
0003
;

//---------------dance-single - ----------------
#NOTES:
     dance-single:
     :
     Beginner:
     3:
     0.140804,0.210815,0.084242,0.092666,0.000000,117.000000,107.000000,10.000000,11.000000,0.000000,0.000000,0.140804,0.210815,0.084242,0.092666,0.000000,117.000000,107.000000,10.000000,11.000000,0.000000,0.000000:
0000
0000
0000
0000
,
0000
0000
0000
0000
,
0000
0000
0000
0000
,
0000
0000
0000
0000
,
1000
1000
0000
0000
,
0001
0001
0000
0000
,
0100
0100
0000
0000
,
0010
0010
0000
0000
,
1000
0000
0100
0000
,
0001
0000
0010
0000
,
1000
0000
0100
0000
,
0010
0000
0001
0000
,
1001
0000
0000
0000
,
1001
0000
0000
0000
,
1001
0000
0000
0000
,
1001
0000
0000
0000
,
0110
0000
0000
0000
,
0110
0000
0000
0000
,
0110
0000
0000
0000
,
0110
0000
0000
0000
,
1000
0000
0100
0000
,
0001
0000
0100
0000
,
1000
0000
0100
0000
,
0100
0000
0010
0000
,
1000
0000
1000
0000
,
1000
0000
1000
0000
,
0100
0000
0001
0000
,
1000
0000
1000
0000
,
2000
0000
0000
0000
,
0000
0000
0000
3000
,
0000
0000
0000
0000
,
0100
0100
0100
0000
,
1001
0000
1000
0000
,
0010
0000
0001
0000
,
0010
0000
0100
0000
,
0010
0000
0100
0000
,
1000
0000
0100
0000
,
0001
0000
0001
0000
,
2000
0000
3000
0000
,
0002
0000
0003
0000
,
0200
0000
0000
0000
,
0000
0000
0300
0000
,
0020
0000
0030
0000
,
0200
0000
0300
0000
,
0002
0000
0000
0000
,
0000
0000
0003
0000
,
0001
0000
0001
0000
,
0010
0000
1000
0000
,
1000
0000
0100
0000
,
0010
0000
0001
0000
,
0010
0000
0010
0000
,
0100
0000
0100
0000
,
0100
0100
0100
0000
,
0010
0010
0010
0000
,
1000
1000
1000
0000
,
0001
0001
0001
0000
,
0002
0000
0000
0000
,
0003
0000
0000
0000
,
2000
0000
0000
0000
,
3000
0000
0000
0000
,
0001
0001
0000
0000
,
0001
0001
0000
0000
,
1000
1000
0000
0000
,
1000
1000
0000
0000
,
0010
0000
0000
0000
,
0100
0000
0000
0000
,
2002
0000
0000
0000
,
3003
0000
0000
0000
,
1000
0000
0001
0000
,
1000
0000
0001
0000
,
1000
0000
1000
0000
,
0001
0000
0001
0000
;
