#TITLE:A Thousand Miles;
#SUBTITLE:(Speedo Mix);
#ARTIST:DJ SPEEDO feat. WILDSIDE;
#TITLETRANSLIT:;
#SUBTITLETRANSLIT:;
#ARTISTTRANSLIT:;
#GENRE:;
#CREDIT:;
#BANNER:A Thousand Miles-bn.png;
#BACKGROUND:A Thousand Miles-bg.png;
#LYRICSPATH:;
#CDTITLE:;
#MUSIC:DJ Speedo feat. Wildside - A Thousand Miles (Speedo Mix)(The New Attack Mix).mp3;
#OFFSET:-0.097000;
#SAMPLESTART:41.599998;
#SAMPLELENGTH:12.000000;
#SELECTABLE:YES;
#BPMS:0.000000=190.000000
;
#STOPS:
;
#BGCHANGES:;
#KEYSOUNDS:;
#ATTACKS:;

//---------------dance-single - ----------------
#NOTES:
     dance-single:
     :
     Hard:
     12:
     0.600019,0.604983,0.490527,0.081754,0.000000,411.000000,363.000000,48.000000,8.000000,0.000000,0.000000,0.600019,0.604983,0.490527,0.081754,0.000000,411.000000,363.000000,48.000000,8.000000,0.000000,0.000000:
0000
0000
0000
0000
,
0000
0000
0000
0000
,
0000
0000
0000
0000
,
0000
0000
0000
0000
,
0000
0000
0000
0000
,
1000
0100
0010
0001
1000
0100
0010
0000
,
0100
0000
1000
0000
0001
0100
0010
0100
,
0001
1001
0010
1001
,
0100
1001
1001
1001
,
0001
0010
0100
0000
0010
0000
0001
0000
,
1000
0010
0100
0000
0001
0000
0010
0000
,
0100
1000
0001
0000
0100
0000
0010
0000
,
1000
0001
0100
0000
0001
0000
1000
0000
,
0100
0010
0100
1000
0001
0100
0010
0000
,
0100
0000
0001
0000
1000
0100
0010
0100
,
1000
0001
0100
0010
1000
0010
0100
0000
,
0001
0000
1000
0000
0001
0010
0100
0010
,
0001
1000
0010
0000
0100
0000
0001
0000
,
1000
0100
0010
0000
0001
0000
1000
0000
,
0010
0100
0001
0000
1000
0000
0100
0000
,
0001
0100
1000
0000
0001
0000
0100
0000
,
0010
1000
0010
0100
0001
1000
0100
0000
,
0010
0000
0001
0000
0100
1000
0100
0010
,
1000
0001
0010
0100
0010
0001
1000
0000
,
0010
0000
0100
0000
0001
1000
0100
0000
,
0010
0001
0010
0100
1000
0010
0100
0000
,
0001
1000
0100
0000
0010
0000
0011
0000
,
0001
0100
0010
0100
0001
1000
0100
0000
,
1000
0010
0100
0000
0010
0000
1010
0000
,
1000
0010
0100
0001
1000
0100
1000
0000
,
0001
0100
0010
0000
1000
0000
0001
0000
,
2001
0010
0001
3100
,
1002
0010
1000
0103
,
1010
0010
0100
1001
,
0001
0011
1001
1100
,
0110
0000
0010
0001
0100
0000
1010
0000
,
0001
0100
0010
0000
1000
0100
0001
0000
,
1100
0010
0001
1001
,
1000
0010
0100
0000
0010
1000
0001
0000
,
0011
0000
0010
0100
1000
0000
0001
0000
,
0100
1000
0100
0010
0100
0001
0100
0010
,
0100
0000
0001
1000
0100
0000
0010
0000
,
0001
0000
1000
0000
0010
0100
0001
1000
,
0100
0000
0010
0001
0100
0010
0100
0000
,
0001
1000
0100
0000
1000
0001
0100
0000
,
0110
0001
1000
0110
,
0001
1000
0110
0001
,
1000
0110
0001
0110
,
1000
1001
1001
1001
,
0001
0100
0010
0100
0001
1000
0100
0000
,
0010
0000
0001
0000
1000
0010
0100
0010
,
1000
0001
0010
0100
0010
0001
1000
0000
,
0010
0000
0100
0000
0001
1000
0100
1000
,
0001
0100
0010
0100
0001
1000
0100
0000
,
0010
0000
0001
0000
1000
0010
0100
0010
,
1000
0001
0010
0001
0100
0010
0100
0000
,
0001
0000
1000
0000
0100
0001
0100
1000
,
0010
0000
0100
0001
1000
0000
0100
0010
,
0001
1000
0020
0130
,
0001
0000
1000
0100
0010
0000
0001
1000
,
0010
0100
0002
1003
,
0100
0000
0010
0001
1000
0000
0010
1000
,
0001
0100
0020
1030
,
0010
0000
0100
0001
1000
0000
0100
1000
,
0001
0100
0020
0130
,
0001
1100
0001
1100
,
0001
1100
0101
1001
,
1000
0101
1000
0101
,
1000
0000
0101
0000
1100
0000
1001
0001
,
0010
0110
1000
0110
,
0001
0110
0110
0110
,
1000
0101
0001
1100
,
0001
0101
1100
1001
,
0220
0000
0000
0000
,
0330
0000
0000
0000
;

//---------------dance-single - ----------------
#NOTES:
     dance-single:
     :
     Medium:
     10:
     0.435050,0.529397,0.224825,0.061316,0.000000,298.000000,276.000000,22.000000,6.000000,0.000000,0.000000,0.435050,0.529397,0.224825,0.061316,0.000000,298.000000,276.000000,22.000000,6.000000,0.000000,0.000000:
0000
0000
0000
0000
,
0000
0000
0000
0000
,
0000
0000
0000
0000
,
0000
0000
0000
0000
,
0000
0000
0000
0000
,
1000
0001
1000
0001
,
1000
0010
1000
0001
,
0100
0001
0100
0001
,
0100
0001
0010
0001
,
1000
1000
1000
1000
,
0010
0010
0010
0010
,
0100
0100
0100
0100
,
0001
0001
0001
0001
,
1000
0100
0010
0001
,
0100
0000
0010
0000
1000
0010
1000
0000
,
0001
0010
0100
1000
,
0001
0000
0100
0000
0001
0100
0001
0000
,
0010
0010
0100
0100
,
1000
0001
0100
0100
,
0010
0010
1000
1000
,
0001
0001
0010
0100
,
1000
0010
0100
0001
,
1000
0000
0100
0000
0010
0001
0010
0000
,
0100
1000
0010
0100
,
0001
0000
1000
0000
0100
0010
0100
0000
,
1000
1000
1000
1000
,
0010
0100
0002
0013
,
0100
0100
0100
0100
,
1000
0010
0200
0310
,
0100
0100
0100
0100
,
0001
1000
0100
0010
,
0002
0000
0003
0000
,
2000
0000
3000
0000
,
0010
0100
0001
1001
,
1000
0100
0010
0001
,
1000
0010
0100
0110
,
0010
0010
1000
1000
,
0001
0010
0100
1100
,
1000
0010
0100
0001
,
1000
0100
0010
0011
,
0001
0100
0001
0000
1000
0000
0100
0000
,
0010
0010
0100
0100
,
1000
0001
0100
0010
,
1000
1000
0001
0001
,
0100
0010
1000
0001
,
1001
0001
0100
0101
,
0100
0010
0110
0010
,
1000
1010
1000
1001
,
0001
0101
0101
0101
,
0001
0010
0100
1000
,
0010
0000
0100
0000
0001
0100
0001
0000
,
1000
0100
0010
0001
,
1000
0000
0010
0000
0100
0010
0100
0000
,
0010
1000
0001
0010
,
0100
0000
1000
0000
0010
0100
0010
0000
,
0100
0001
1000
0100
,
0010
0000
0001
0000
1000
0010
1000
0000
,
0001
0001
0001
0001
,
1000
0010
0100
0100
,
0001
0001
0001
0001
,
1000
0100
0010
0010
,
0100
0100
0100
0100
,
1000
0010
0100
0100
,
0001
0001
0001
0001
,
0010
0100
1000
1000
,
0010
0110
0100
0110
,
0010
1000
0001
0010
,
0100
0110
0010
0011
,
0001
1000
0010
0100
,
0001
1001
1000
1100
,
0100
0010
0001
1000
,
0010
1010
0100
0110
,
0100
0001
1000
0110
,
2002
0000
0000
0000
,
3000
0003
0000
0000
0000
0000
0000
0000
0000
0000
0000
0000
0000
0000
0000
0000
0000
0000
0000
0000
0000
0000
0000
0000
0000
0000
0000
0000
0000
0000
0000
0000
0000
0000
0000
0000
0000
0000
0000
0000
0000
0000
0000
0000
0000
0000
0000
0000
0000
0000
0000
0000
0000
0000
0000
0000
0000
0000
0000
0000
0000
0000
0000
0000
0000
0000
0000
0000
0000
0000
0000
0000
0000
0000
0000
0000
0000
0000
0000
0000
0000
0000
0000
0000
0000
0000
0000
0000
0000
0000
0000
0000
0000
0000
0000
0000
0000
0000
0000
0000
0000
0000
0000
0000
0000
0000
0000
0000
0000
0000
0000
0000
0000
0000
0000
0000
0000
0000
0000
0000
0000
0000
0000
0000
0000
0000
0000
0000
0000
0000
0000
0000
0000
0000
0000
0000
0000
0000
0000
0000
0000
0000
0000
0000
0000
0000
0000
0000
0000
0000
0000
0000
0000
0000
0000
0000
0000
0000
0000
0000
0000
0000
0000
0000
0000
0000
0000
0000
0000
0000
0000
0000
0000
0000
0000
0000
0000
0000
0000
0000
0000
0000
0000
0000
0000
0000
0000
0000
0000
0000
0000
0000
;

//---------------dance-single - ----------------
#NOTES:
     dance-single:
     :
     Easy:
     7:
     0.421911,0.567172,0.265702,0.061316,0.000000,289.000000,263.000000,26.000000,6.000000,0.000000,0.000000,0.421911,0.567172,0.265702,0.061316,0.000000,289.000000,263.000000,26.000000,6.000000,0.000000,0.000000:
0000
0000
0000
0000
,
0000
0000
0000
0000
,
0000
0000
0000
0000
,
0000
0000
0000
0000
,
0000
0000
0000
0000
,
1000
1000
1000
0000
,
0001
0100
0001
0000
,
1000
1000
1000
0000
,
0100
0010
0100
0000
,
1000
0010
1000
0010
,
0100
0001
0100
0001
,
1000
0100
1000
0100
,
0010
0001
0010
0001
,
0100
0100
0100
0100
,
0010
1000
0001
0100
,
0001
0001
0001
0001
,
0010
0100
1000
0001
,
0100
0010
0100
0001
,
1000
0100
1000
0100
,
0010
0001
1000
0010
,
1000
0001
0100
0010
,
1000
1000
1000
1000
,
0001
0100
0010
0100
,
0001
0001
0001
0001
,
0010
0100
0010
1001
,
0100
0010
0100
0001
,
1000
0100
0100
0100
,
0010
0001
1000
0010
,
0100
0001
0001
0001
,
0001
0010
0100
1000
,
0010
0100
0100
0100
,
0220
0000
0330
0000
,
2002
0000
3003
0000
,
0001
0010
0100
1000
,
0010
0100
0100
0100
,
0100
0001
0010
0100
,
1000
1000
0001
0001
,
0100
0010
1000
0001
,
0010
0100
0100
0100
,
0100
1000
0010
0100
,
0101
1001
1100
1001
,
0001
0010
0100
1000
,
0010
0100
0100
0001
,
0001
1000
0100
0010
,
0001
1000
1000
0010
,
0110
0100
0010
0110
,
0010
0100
0110
0100
,
0010
1010
1000
1001
,
0001
0110
0110
0110
,
0010
0001
0010
0001
,
1000
0100
1000
0100
,
0010
0001
0010
0001
,
1000
0100
1000
0100
,
1000
0010
0001
0010
,
1000
0010
0001
0010
,
1000
0100
0001
0100
,
1000
0100
0001
0100
,
1000
0010
1000
0010
,
0100
0100
0100
0100
,
0001
0010
0001
0010
,
0100
0100
0100
0100
,
1000
0001
1000
0001
,
0100
0100
0100
0100
,
0001
1000
0001
1000
,
0010
0010
0010
0010
,
1000
0001
1000
0001
,
1000
0001
0001
0001
,
0010
0100
0010
0100
,
0010
0100
0100
0100
,
1000
1001
0001
0101
,
0100
0110
0110
0110
,
0010
1010
1000
1001
,
0001
0011
0011
0011
,
2002
0000
0000
0000
,
3003
0000
0000
0000
;

//---------------dance-single - Copied from----------------
#NOTES:
     dance-single:
     Copied from:
     Beginner:
     4:
     0.156209,0.261103,0.051097,0.102193,0.000000,107.000000,102.000000,5.000000,10.000000,0.000000,0.000000,0.156209,0.261103,0.051097,0.102193,0.000000,107.000000,102.000000,5.000000,10.000000,0.000000,0.000000:
0000
0000
0000
0000
,
0000
0000
0000
0000
,
0000
0000
0000
0000
,
0000
0000
0000
0000
,
0000
0000
0000
0000
,
1000
0000
0000
0000
,
0000
0000
0000
0000
,
0001
0000
0000
0000
,
0000
0000
0000
0000
,
0100
0000
0100
0000
,
0100
0000
0000
0000
,
0010
0000
0010
0000
,
0010
0000
0000
0000
,
1000
0000
0000
0000
,
0000
0000
0000
0000
,
0001
0000
0000
0000
,
0000
0000
0000
0000
,
0010
0000
0010
0000
,
0010
0000
0000
0000
,
0100
0000
0100
0000
,
0100
0000
0000
0000
,
1000
0000
0000
0000
,
0000
0000
0000
0000
,
0001
0000
0000
0000
,
0000
0000
0000
0000
,
0100
0000
0100
0000
,
0100
0000
0110
0000
,
0010
0000
0010
0000
,
0010
0000
1001
0000
,
1000
0000
1000
0000
,
1000
0000
1001
0000
,
0002
0000
0003
0000
,
2000
0000
3000
0000
,
0010
0000
0010
0000
,
0020
0000
0030
0000
,
0100
0000
0100
0000
,
0200
0000
0300
0000
,
0001
0000
0001
0000
,
0002
0000
0003
0000
,
1000
0000
1000
0000
,
2000
0000
3000
0000
,
0010
0000
0010
0000
,
0100
0000
0100
0000
,
1000
0000
0001
0000
,
1000
0000
0001
0000
,
0100
0000
0100
0100
,
0000
0000
0010
0000
,
0000
0000
0000
0000
,
0000
0000
1001
0000
,
0010
0000
0010
0000
,
0020
0000
0030
0000
,
1000
0000
1000
0000
,
2000
0000
3000
0000
,
0001
0000
0001
0000
,
0002
0000
0003
0000
,
0010
0000
0010
0000
,
0020
0000
0030
0000
,
0100
0000
0100
0000
,
0100
0000
0100
0000
,
1000
0000
1000
0000
,
1000
0000
1000
0000
,
0001
0000
0001
0000
,
0001
0000
0001
0000
,
0010
0000
0010
0000
,
0010
0000
0010
0000
,
0001
0000
1000
0000
,
0001
0000
1000
0000
,
0010
0000
0100
0000
,
0010
0000
0100
0000
,
0010
0000
1000
0000
,
0010
0000
1000
0000
,
0001
0000
0010
0000
,
0001
0000
0010
0000
,
0110
0000
0000
0000
;
