#TITLE:Cellular Telephone;
#SUBTITLE:;
#ARTIST:Kitty Von Steel;
#TITLETRANSLIT:;
#SUBTITLETRANSLIT:;
#ARTISTTRANSLIT:;
#CREDIT:;
#BANNER:;
#BACKGROUND:;
#LYRICSPATH:;
#CDTITLE:;
#MUSIC:music.ogg;
#OFFSET:-0.018;
#SAMPLESTART:37.455;
#SAMPLELENGTH:12.000;
#SELECTABLE:YES;
#BPMS:0.000=160.000;
#STOPS:;
#BGCHANGES:;

//---------------dance-single - ----------------
#NOTES:
     dance-single:
     :
     Easy:
     4:
     0.267,0.273,0.159,0.182,0.000:
0000
0000
0000
0000
,
0000
0000
0000
0000
,
0000
0000
0000
0000
,
0000
0000
0000
0000
,
1000
0001
0100
0010
,
0010
1000
0001
0100
,
0010
0010
1000
0001
,
0001
0100
0010
0000
,
1000
0000
0000
1001
,
0010
0000
0000
0110
,
0010
0000
0000
1001
,
1000
0000
0000
0101
,
0100
0000
0000
1010
,
0010
0000
0000
1001
,
1000
0000
0000
0101
,
0002
0000
0000
0003
,
1001
0010
0010
1000
,
0001
0100
0010
0010
,
0000
1000
0001
0100
,
0010
1000
0000
0000
,
0000
0001
0001
0100
,
0010
1000
1000
0100
,
0000
0001
0100
1000
,
0100
0001
0000
0000
,
0001
0000
0010
0000
0001
0000
0000
1000
,
0000
0001
0000
1000
0000
0000
0000
0000
,
0001
0000
1000
0000
,
0010
0010
0010
0000
,
1000
0001
1000
0001
,
0001
0100
0010
0000
,
0000
1000
0001
0100
,
0010
0000
1000
0000
,
0002
0000
2003
0000
,
3010
0100
0010
0100
,
0002
0000
2003
0000
,
3010
0100
0010
0000
,
2000
0000
3002
0000
,
0103
0010
0100
0010
,
2000
0000
3002
0000
,
0103
0010
0001
0000
,
0200
0000
0300
1001
,
0020
0000
0030
0110
,
2000
0000
3000
1100
,
0002
0000
0003
0101
,
0020
0000
0030
1010
,
0002
0000
0003
1001
,
0020
0000
0030
0110
,
1000
0000
0000
0000
,
1001
0010
0010
0100
,
0100
0001
1000
0000
,
0001
0000
0100
0000
,
0010
0000
1000
0000
,
1001
0000
0010
0010
,
0100
0100
0001
0001
,
1000
0010
0100
0001
,
1000
1000
0000
0000
,
1001
0000
0010
0000
,
0100
0000
0001
0000
,
1000
0000
0010
0000
,
1000
1000
1000
0000
,
0001
0100
0001
0100
,
0010
1000
0001
0000
,
0000
1000
0010
1000
,
1001
0000
0110
0000
,
2000
0000
3002
0000
,
0103
0010
1000
0010
,
2000
0000
3002
0000
,
0103
0100
0100
0000
,
0002
0000
2003
0000
,
3010
0001
0100
0100
,
0002
0000
0023
0000
,
0130
1000
1000
0000
,
0100
0010
0000
0000
,
1000
0001
0000
0000
,
0100
0010
0000
0000
,
1000
0001
0000
0000
,
1000
0100
0000
0010
,
0001
0100
0000
0010
,
1000
0001
0000
0000
,
0010
0000
0000
0001
0000
0000
1000
0000
,
1001
0000
0000
0000
;

//---------------dance-single - Copied from----------------
#NOTES:
     dance-single:
     Copied from:
     Hard:
     9:
     0.629,0.606,0.182,0.212,0.220:
0000
0000
0000
0000
,
0000
0000
0000
0000
,
0000
2000
0000
0000
,
3020
0000
0000
2030
,
3010
1000
0010
0000
1000
0100
0010
0001
,
0010
0000
0001
0010
0100
1000
0100
0000
,
1000
0010
0100
0001
0100
0000
0010
1000
,
0010
0100
0002
0000
0000
0000
0003
0000
,
1000
0000
0100
0000
1000
0000
0001
0100
0000
0001
0100
0000
0010
0000
1000
0000
,
0001
0000
0010
0000
0100
0000
1000
0100
0000
1000
0100
0000
0010
0000
0001
0000
,
1000
0000
0100
0000
0010
0000
0100
1000
0000
1000
0100
0000
0010
0000
0001
0000
,
1000
0000
0010
0000
0100
0000
0010
0100
0000
0100
0001
0000
1000
0000
0001
0000
,
1000
0000
0100
0000
0010
0000
0001
0010
0000
0001
0010
0000
0100
0000
1000
0000
,
0001
0000
0100
0000
0001
0000
0100
0010
0000
0100
0010
0000
0100
0000
0001
0000
,
1000
0000
0100
0000
0010
0000
0001
0010
0000
0001
0010
0000
0100
0000
1000
0000
,
0001
0000
0001
0000
0001
0000
1000
0100
0000
1000
0100
0000
0010
0000
0010
0000
,
1001
0000
1000
0010
1000
0010
0100
0001
,
0200
0000
0320
0000
1030
0100
0010
0001
,
0000
0000
2000
0000
3200
0000
0310
0001
,
1000
0000
0100
0000
0010
0000
0000
0001
0000
0000
1000
0000
0100
0000
0100
0000
,
0010
0000
0001
0100
1000
0000
1000
0100
,
0001
0000
0100
0000
0001
0010
0100
1000
,
0000
0001
0100
1000
0100
0001
0100
0010
,
1000
0000
0001
0000
1000
0000
0000
0001
0000
0000
0100
0000
0010
0000
0010
0000
,
2000
0000
3200
0000
0320
0000
0032
1000
,
0000
0100
0000
1003
0000
0010
0100
0001
,
2000
0000
3000
0001
0100
0001
1000
0010
,
1001
0000
0000
0000
1010
0000
0000
0000
1000
0000
0001
0100
0001
0000
1000
0000
,
1001
0001
0100
0010
1000
0010
0100
0001
,
0020
0000
0230
0000
1000
1300
0001
0000
,
1000
0100
0010
0100
1000
0001
0010
0100
,
1100
1100
0000
0000
0011
0011
0000
0000
,
1000
0010
0100
0000
0100
0010
1000
0000
,
0001
0100
1000
0100
0001
0100
0020
0000
,
1030
0100
0010
0000
0010
0100
1000
0000
,
0001
0100
1000
0100
0002
0000
0003
0000
,
1000
0100
0010
0000
0010
0100
1000
0000
,
0001
0010
1000
0010
0001
0010
0200
0000
,
1300
0010
0100
0000
0100
0010
1000
0000
,
0001
0100
1000
0100
0002
0000
0003
0000
,
1000
0000
0010
0000
0100
0000
0000
0001
0000
0000
0100
0000
0101
0000
0001
0000
,
1000
0000
0100
0000
0010
0000
0000
0001
0000
0000
0010
0000
0110
0000
0100
0000
,
1000
0000
0001
0000
0100
0000
0000
0001
0000
0000
1000
0000
1100
0000
0100
0000
,
1000
0000
0010
0000
0100
0000
0000
0001
0000
0000
0100
0000
0110
0000
0010
0000
,
0001
0000
1000
0000
0001
0000
0100
0001
0000
0100
0001
0000
0010
0000
0100
0000
,
1000
0000
0010
0000
0100
0000
0001
0100
0000
0001
0100
0000
0010
0000
1000
0000
,
0010
0000
1000
0000
0100
0000
0010
0001
0000
0001
0010
0000
0100
0000
1000
0000
,
0001
0000
0001
0000
0001
0000
1000
0100
0000
1000
0100
0000
0010
0000
0001
0000
,
1000
0000
0001
0100
0001
0000
1000
0001
,
1000
0000
0010
0000
1000
0002
2003
3020
,
0130
0001
0100
0001
0000
1000
0000
0000
,
0001
0000
0100
0000
0010
0000
1000
0010
0000
1000
0010
0000
0100
0000
0001
0000
,
1000
0100
0000
0000
0100
0010
0000
0000
0010
0001
0000
0000
0001
1000
0000
0000
,
1000
0100
0000
0000
0100
0010
0000
0000
0010
0000
0001
0000
1000
0000
0100
0000
,
0010
0001
0100
0010
1000
0100
0100
1000
,
0001
0000
0010
0000
0001
0000
1000
0010
0000
1000
0010
0000
0100
0000
0001
0000
,
2001
0000
3020
0000
0230
0000
0302
0010
,
0000
1000
0000
0013
0000
0100
1000
0100
,
1000
0000
1001
0000
1000
0001
0100
0001
,
0101
0000
0000
0000
1010
0000
0000
0000
1000
0000
0001
0100
0001
0100
0001
0000
,
1000
0010
1000
0010
0100
0001
0100
0001
,
1000
0100
0000
0000
1000
0100
0000
0000
0010
0000
0001
0000
1000
0000
0010
0000
,
0000
1000
0001
0100
1000
0100
0001
0100
,
0101
0101
0000
0000
1010
1010
0000
0000
,
0001
0100
1000
0000
1000
0100
0001
0000
,
0001
0010
1000
0010
0001
0010
0100
0000
,
1000
0010
0001
0000
0001
0010
1000
0000
,
1000
0100
0001
0100
2000
0000
3000
0000
,
0001
0001
0100
0000
1000
1000
0100
0000
,
0001
0100
0010
1000
0001
0100
1000
0000
,
1000
0100
0001
0000
0001
0100
0010
0000
,
1000
0010
0100
0001
2000
0000
3000
0000
,
0001
0000
0100
0000
0001
0000
1000
0010
0000
1000
0010
0000
0100
0000
0001
0000
,
0010
0000
0010
0000
0100
0000
1000
0001
0000
1000
0001
0000
0010
0000
0100
0000
,
1000
0000
1000
0000
0001
0000
0100
0001
0000
0100
0001
0000
0010
0000
0100
0000
,
1000
0000
1000
0000
0001
0000
0010
0100
0000
0010
0100
0000
1000
0000
0001
0000
,
1000
0000
0100
0000
1000
0000
0000
0001
0000
0000
1000
0000
1001
0000
0000
0000
,
0001
0000
0100
0000
1000
0000
0000
0100
0000
0000
0001
0000
0101
0000
0000
0000
,
0001
0000
0100
0000
1000
0000
0000
0100
0000
0000
0001
0000
0101
0000
0000
0000
,
0010
0000
0010
0000
0010
0000
1000
0010
0000
1000
0010
0000
0100
0000
0001
0000
,
0101
0000
0000
0000
;

//---------------dance-single - ----------------
#NOTES:
     dance-single:
     :
     Medium:
     6:
     0.413,0.454,0.235,0.189,0.000:
0000
0000
0000
0000
,
0000
0000
0000
0000
,
0000
2000
0000
0000
,
3020
0000
0000
0030
,
1000
0001
1000
0000
0001
0100
0001
0000
,
0010
0000
0001
1000
0001
0000
1000
0000
,
0010
1000
0010
0000
0100
0000
0001
0010
,
0001
1000
0001
0000
,
1000
0100
2000
0000
3000
0000
1001
0000
,
0010
0100
0020
0000
0030
0000
1001
0000
,
1000
0010
0200
0000
0300
0000
1001
0000
,
0001
0010
0200
0000
0300
0000
1001
0000
,
0010
0100
0002
0000
0003
0000
1100
0000
,
0001
0010
0001
0000
0000
0000
1001
0000
,
0010
0100
0010
0000
0000
0000
1001
0000
,
1000
0010
1000
0000
0000
0000
1001
0000
,
0001
0100
0010
1000
,
0001
0000
0010
0000
0100
1000
0100
1000
,
0000
0001
0100
0010
,
1000
0001
1000
0000
0010
0000
0100
0000
,
1001
0010
0100
0100
,
0010
0000
0010
0000
1000
0001
1000
0001
,
0000
1000
0010
0100
,
0001
0010
0001
0000
0000
0000
0000
0000
,
2000
0000
3020
0000
0230
0000
0301
2000
,
0000
3020
0000
0230
0000
0300
0001
0000
,
1000
0010
0100
0001
,
0011
1001
1100
0001
,
1000
0010
1000
0001
1000
0000
0100
0000
,
0010
0000
0001
0000
0100
0010
0000
0000
,
1000
0001
0100
0010
,
1010
1010
0000
0000
1001
1001
0000
0000
,
0001
1000
0001
0000
1000
0100
1000
0000
,
0001
0001
0100
0100
,
0010
0010
1000
1000
,
0001
1000
0001
1000
0001
0000
0000
0000
,
1000
0100
1000
0000
0001
0100
0001
0000
,
0010
0010
0100
0100
,
1000
0001
1000
0000
0010
0100
0010
0000
,
1000
0001
1000
0001
2000
0000
3000
0000
,
0001
0100
0001
1001
,
0010
0100
0001
1001
,
0100
0010
0001
1001
,
0010
0100
0001
1001
,
0010
1000
0001
1100
,
0001
0010
0001
0101
,
0010
1000
0001
1001
,
1000
1000
1000
0000
0000
0000
1001
0000
,
0010
0100
0001
0010
,
0100
1000
0001
0100
,
0010
1000
0001
0100
0000
0000
0000
0000
,
0010
0010
1000
1000
,
1001
0010
0100
0010
,
0100
0001
1000
0001
,
0100
0010
1000
0100
,
0001
0001
0100
1000
,
1001
0010
0100
0001
,
0010
0100
1000
0001
,
0100
0001
0100
0010
,
2000
3002
0003
0000
,
1000
0010
1000
0000
0001
0100
0001
0000
,
2000
0000
3010
0000
0100
0001
0100
0000
,
0010
1000
0001
0010
,
0001
0010
0000
0000
0010
0001
0000
0000
,
1000
0001
1000
0000
0001
1000
0001
0000
,
1000
0100
1000
0000
0100
0000
0100
0000
,
0010
0100
0010
0000
0001
0010
0001
0000
,
1000
0001
1000
0001
1000
0000
0010
0000
,
1000
0100
1000
0000
0001
0100
0001
0000
,
1000
0100
0010
0000
0001
0000
0100
0000
,
0010
1000
0010
0000
1000
0001
1000
0000
,
0010
0010
0100
0000
,
0022
0000
0033
0000
,
2002
0000
0000
3003
,
2020
0000
0000
3030
,
0202
0000
0000
0303
,
1000
0001
1000
0000
0010
0000
0100
0000
,
0001
1000
0001
0000
0010
0000
0100
0000
,
1000
0001
1000
0000
0010
0000
0100
0000
,
0001
0001
0001
0000
0000
0000
1000
0000
,
1001
0000
0000
0000
;

//---------------dance-single - ----------------
#NOTES:
     dance-single:
     :
     Beginner:
     1:
     0.124,0.181,0.114,0.000,0.000:
0000
0000
0000
0000
,
0000
0000
0000
0000
,
0000
0000
0000
0000
,
0000
0000
0000
0000
,
1000
0000
0001
0000
,
0100
0000
0010
0000
,
1000
0000
0000
0001
,
0000
0000
1000
0000
,
0001
0000
0000
1001
,
0000
0000
0000
0110
,
0000
0000
0000
1001
,
0000
0000
0000
1001
,
0000
0000
0000
1000
,
0000
0000
0000
0001
,
0000
0000
0000
0100
,
0000
0000
0000
0000
,
0010
0000
0000
0000
,
1000
0000
0001
0000
,
0000
0100
0100
0000
,
1000
0000
0000
0000
,
0000
0000
1000
0000
,
0001
0000
0100
0100
,
0000
0001
0000
1000
,
1000
0000
0000
0000
,
0010
0000
0000
0000
,
0000
0000
0000
0000
,
0000
0000
0000
0000
,
1000
1000
1000
0000
,
1000
0000
0000
0000
,
0001
0000
0000
0000
,
0100
0000
0000
0000
,
0010
0000
0010
0000
,
1000
0000
0001
0000
,
1000
0000
0000
0000
,
0010
0000
0100
0000
,
0001
0000
0000
0000
,
1000
0000
0001
0000
,
0100
0000
0000
0000
,
1000
0000
0010
0000
,
0100
0000
0000
0000
,
0001
0000
0000
1001
,
0000
0000
0000
0110
,
0000
0000
0000
0110
,
0000
0000
0000
1001
,
0000
0000
0000
1000
,
0000
0000
0000
0001
,
0000
0000
0000
0100
,
0000
0000
0000
0000
,
1001
0000
1000
0000
,
1000
0000
0001
0000
,
0001
0000
0100
0000
,
0100
0000
0000
0000
,
1001
0000
0000
0000
,
0100
0000
0100
0000
,
0100
0000
0000
0000
,
0000
0000
0000
0000
,
1001
0000
1000
0000
,
0001
0000
0000
0000
,
1000
0000
0000
0000
,
1000
1000
1000
0000
,
0001
0000
0000
0000
,
0100
0000
0000
0000
,
0000
0000
0000
0000
,
0010
0000
0010
0000
,
1000
0000
0001
0000
,
0100
0000
0000
0000
,
0010
0000
1000
0000
,
0001
0000
0000
0000
,
1000
0000
0010
0000
,
0100
0000
0000
0000
,
0001
0000
1000
0000
,
0001
0000
0000
0000
,
1000
0000
0000
1001
,
0000
0000
0000
1001
,
0000
0000
0000
0010
,
0000
0000
0000
0010
,
0000
0000
0000
0100
,
0000
0000
0000
0100
,
0000
0000
0000
1001
,
0000
0000
0000
1001
;

//---------------dance-double - ----------------
#NOTES:
     dance-double:
     :
     Hard:
     9:
     0.605,0.608,0.030,0.167,0.242: // measure 1
00000000
00000000
00000000
00000000
,  // measure 2
00000000
00000000
00000000
00000000
,  // measure 3
00000000
00000000
00000000
00000000
,  // measure 4
00000000
00000000
00000000
00000000
,  // measure 5
00001000
00010000
00001000
00000000
00010000
00000100
00010000
00000010
,  // measure 6
00000100
00000000
00000001
00000100
00000010
00010000
00001000
00000000
,  // measure 7
00100000
00010000
10000000
00100000
01000000
00000000
00001000
00010000
,  // measure 8
00001000
01000000
00020000
00000000
00000000
00000000
00030000
00000000
,  // measure 9
10000000
00000000
00010000
00000000
10000000
00000000
00000000
10000000
00000000
00000000
00100000
00000000
01000000
00000000
00010000
00000000
,  // measure 10
01000000
00000000
00100000
00000000
10000000
00000000
00000000
10000000
00000000
00000000
01000000
00000000
00010000
00000000
01000000
00000000
,  // measure 11
10000000
00000000
01000000
00000000
00100000
00000000
00000000
00001000
00000000
00000000
00010000
00000000
00001000
00000000
00100000
00000000
,  // measure 12
00010000
00000000
00100000
00000000
00001000
00000000
00000000
00010000
00000000
00000000
00000100
00000000
00001000
00000000
00001000
00000000
,  // measure 13
00000010
00000000
00000100
00000000
00000001
00000000
00000100
00000001
00000000
00000100
00000001
00000000
00001000
00000000
00000010
00000000
,  // measure 14
00001000
00000000
00000100
00000000
00010000
00000000
00001000
00010000
00000000
00001000
00010000
00000000
00001000
00000000
00100000
00000000
,  // measure 15
00010000
00000000
01000000
00000000
00100000
00000000
10000000
01000000
00000000
10000000
01000000
00000000
00100000
00000000
00010000
00000000
,  // measure 16
00100000
00000000
00001000
00000000
00010000
00000000
00001000
00100000
00000000
00001000
00100000
00000000
00010000
00000000
10000000
00000000
,  // measure 17
10010000
00000000
00000000
00000000
10000000
00010000
00000000
00000000
00010000
01000000
00000000
00000000
01000000
00010000
00000000
00000000
,  // measure 18
00010000
00100000
00000000
00000000
00100000
00001000
00000000
00000000
00001000
00010000
00000000
00000000
00010000
00001000
00000000
00000000
,  // measure 19
00001000
00010000
00000000
00000000
00010000
00000100
00000000
00000000
00000100
00001000
00000000
00000000
00001000
00000010
00000000
00000000
,  // measure 20
00000010
00000000
00000100
00000000
00000001
00000000
00000000
00000010
00000000
00000000
00000100
00000000
00001000
00000000
00001000
00000000
,  // measure 21
00000001
00000010
00000000
00000000
00000010
00000100
00000000
00000000
00000100
00010000
00000000
00000000
00010000
00001000
00000000
00000000
,  // measure 22
00001000
00100000
00000000
00000000
00100000
00010000
00000000
00000000
00010000
10000000
00000000
00000000
10000000
01000000
00000000
00000000
,  // measure 23
01000000
00100000
00010000
00000100
00010000
00100000
01000000
00100000
,  // measure 24
00010000
00000000
10000000
00000000
00010000
00000000
10000000
00100000
00000000
10000000
00100000
00000000
10000000
00000000
10000000
00000000
,  // measure 25
00200000
00000000
02300000
00000000
03002000
00000000
00203000
00010000
,  // measure 26
00000000
01000000
00000000
00310000
00000000
10000000
00010000
00100000
,  // measure 27
00002000
00000000
00000000
00013000
00001000
01000000
00100000
01000000
,  // measure 28
10000000
00000000
00000000
00000000
10000000
00000000
00000000
00000000
10000000
00000000
00010000
01000000
00010000
01000000
00010000
00000000
,  // measure 29
10000000
01000000
00010000
01000000
10000000
00100000
01000000
00001000
,  // measure 30
00020000
00000000
00030200
00000000
00000010
00000310
00001000
00000000
,  // measure 31
00000001
00000100
00000010
00010000
00000100
00001000
00000001
00000010
,  // measure 32
00000100
00000100
00000000
00000000
00000010
00000010
00000000
00000000
,  // measure 33
00000001
00000100
00001000
00000000
00010000
01000000
10000000
00000000
,  // measure 34
10000000
01000000
00010000
00001000
00000100
00000001
00000100
00000000
,  // measure 35
00000001
00000010
00001000
00000000
00010000
00100000
10000000
00000000
,  // measure 36
10000000
00100000
00010000
00001000
00000010
00000001
00000010
00000100
,  // measure 37
00001000
00010000
00001000
00000000
00010000
00001000
00010000
00000000
,  // measure 38
00001000
00100000
00001000
00100000
00010000
01000000
00010000
00000000
,  // measure 39
10000000
01000000
00010000
00000000
00010000
01000000
10000000
00000000
,  // measure 40
10000000
00010000
00100000
00001000
01000000
00000000
00100000
00100000
,  // measure 41
10000000
00000000
00010000
00000000
01000000
00000000
00000000
01000000
00000000
00000000
00001000
00000000
00010000
00000000
00000001
00000000
,  // measure 42
00001000
00000000
00000001
00000000
00000100
00000000
00000000
00000010
00000000
00000000
00000100
00000000
00000001
00000000
00000100
00000000
,  // measure 43
00000010
00000000
00000001
00000000
00001000
00000000
00000000
00000100
00000000
00000000
00010000
00000000
00001000
00000000
00010000
00000000
,  // measure 44
00001000
00000000
00100000
00000000
00010000
00000000
00000000
00010000
00000000
00000000
10000000
00000000
01000000
00000000
00010000
00000000
,  // measure 45
00001000
00000000
00000100
00000000
00000001
00000000
00000000
00000001
00000000
00000000
00000100
00000000
00001000
00000000
00010000
00000000
,  // measure 46
01000000
00000000
10000000
00000000
01000000
00000000
00000000
00100000
00000000
00000000
00010000
00000000
00100000
00000000
01000000
00000000
,  // measure 47
10000000
00000000
00100000
00000000
01000000
00000000
00000000
00001000
00000000
00000000
00010000
00000000
00001000
00000000
00010000
00000000
,  // measure 48
00001000
00000000
00001000
00000000
00001000
00000000
00000000
01000000
00000000
00000000
00010000
00000000
10000000
00000000
01000000
00000000
,  // measure 49
00100000
00000000
00010000
01000000
00010000
00000000
10000000
00010000
,  // measure 50
10000000
00000000
00100000
00000000
01000000
00001000
00010000
00001000
,  // measure 51
00010000
00000100
00010000
00002000
00000000
00203000
00000000
00300000
,  // measure 52
00010000
00000000
01000000
00000000
00100000
00000000
10000000
00100000
00000000
10000000
00100000
00000000
01000000
00000000
00010000
00000000
,  // measure 53
10000000
01000000
00010000
01000000
00100000
00010000
00100000
00001000
,  // measure 54
00020000
00000000
00030200
00000000
00000320
00000000
00000130
00010000
,  // measure 55
00000100
00010000
00001000
01000000
00100000
01000000
00001000
01000000
,  // measure 56
00100000
00000000
00100000
00000000
00100000
00000000
00000000
10000000
00000000
00000000
00100000
00000000
01000000
00000000
00010000
00000000
,  // measure 57
20000000
00000000
30020000
00000000
02030000
00000000
03002000
00010000
,  // measure 58
00000000
00100000
00000000
00013000
00000000
00001000
00010000
00000100
,  // measure 59
00001000
00000000
00000000
00000000
00000001
00001000
00000100
00001000
,  // measure 60
00000001
00000000
00000000
00000000
00001001
00000000
00000000
00000000
00001010
00000000
00000010
00010000
00000010
00010000
00000010
00000000
,  // measure 61
00001000
00000100
00010000
00001000
00010000
00000100
00001000
00000100
,  // measure 62
00020000
00000000
00030200
00000000
00010300
00001000
00100000
00010000
,  // measure 63
10000000
10000000
00100000
00100000
01000000
01000000
00010000
00010000
,  // measure 64
00100000
00100000
00000000
00000000
00010000
00010000
00000000
00000000
,  // measure 65
10000000
01000000
00010000
00000000
00001000
00000010
00000100
00000000
,  // measure 66
00001000
00000001
00000100
00001000
00000100
00000010
00010000
00000000
,  // measure 67
00001000
01000000
00100000
00000000
10000000
01000000
00010000
00000000
,  // measure 68
00010000
01000000
10000000
01000000
00100000
00010000
00100000
00010000
,  // measure 69
10000000
01000000
00100000
00000000
00100000
00001000
00010000
00000000
,  // measure 70
00010000
00000100
00010000
00001000
01000000
00010000
10000000
00000000
,  // measure 71
00010000
01000000
00001000
00000000
00001000
00010000
00000010
00000000
,  // measure 72
00000010
00001000
00000001
00001000
00000020
00000000
00000030
00000000
,  // measure 73
00000001
00000000
00001000
00000000
00000001
00000000
00000100
00000010
00000000
00000100
00000010
00000000
00001000
00000000
00000010
00000000
,  // measure 74
00010000
00000000
00001000
00000000
00100000
00000000
00010000
00100000
00000000
00001000
00010000
00000000
00001000
00000000
00100000
00000000
,  // measure 75
00010000
00000000
01000000
00000000
00100000
00000000
10000000
01000000
00000000
10000000
01000000
00000000
00100000
00000000
00010000
00000000
,  // measure 76
00100000
00000000
01000000
00000000
10000000
00000000
00100000
01000000
00000000
00001000
01000000
00000000
00010000
00000000
00100000
00000000
,  // measure 77
00000100
00000000
00001000
00000000
00000010
00000000
00000100
00000010
00000000
00000100
00000010
00000000
00001000
00000000
00000100
00000000
,  // measure 78
00010000
00000000
00001000
00000000
00100000
00000000
00010000
01000000
00000000
00010000
00100000
00000000
01000000
00000000
10000000
00000000
,  // measure 79
01000000
00000000
00100000
00000000
00001000
00000000
00100000
00001000
00000000
01000000
00010000
00000000
01000000
00000000
00100000
00000000
,  // measure 80
10000000
00000000
10000000
00000000
10000000
00000000
00000000
00010000
00000000
00000000
00100000
00000000
00001000
00000000
00010000
00000000
,  // measure 81
00022000
00033000
00000000
00000000
;
