#TITLE:stealth;
#SUBTITLE:;
#ARTIST:DAISUKE ASAKURA;
#TITLETRANSLIT:;
#SUBTITLETRANSLIT:;
#ARTISTTRANSLIT:;
#GENRE:;
#CREDIT:;
#MUSIC:stealth.mp3;
#BANNER:stealth.png;
#BACKGROUND:stealth-bg.png;
#CDTITLE:;
#SAMPLESTART:15.032;
#SAMPLELENGTH:15.000;
#SELECTABLE:YES;
#OFFSET:-0.057;
#BPMS:0.000=160.000;
#STOPS:;
#BGCHANGES:;
#FGCHANGES:;

//--------------- dance-single - HellKiteChaos ----------------
#NOTES:
     dance-single:
     HellKiteChaos:
     Challenge:
     15:
     0,0,0,0,0:
0000
0000
0000
0000
,
0000
0000
0000
0000
,
0000
0000
0000
0000
,
0000
0000
0000
0000
,
1000
0100
0010
0100
0010
0001
0100
0010
,
0100
0000
0010
0000
1000
0000
0001
0000
0100
0000
0010
1000
0010
0000
1000
0000
,
0001
0000
0000
1000
0100
0000
0010
0000
0001
0000
0000
1000
0010
0000
0100
0000
,
0001
0000
1000
0000
0001
0000
1000
0000
0001
0010
0100
1000
0010
0100
0001
0000
,
2002
0000
0000
3003
,
1000
0001
0110
1001
,
1000
0000
0010
0000
0100
0000
0010
0000
1000
0000
0001
0000
0100
0001
0100
0000
,
0000
0101
0000
1100
0000
0100
0010
0100
,
1000
0000
0100
0000
0010
0000
0001
0000
1000
0000
0001
0000
0100
0010
0100
0000
,
0000
0101
0000
1010
0000
1000
0010
0100
,
0001
0000
1000
0000
0100
0000
1000
0000
0001
0000
0010
0000
0100
1000
0001
0000
,
0000
0101
0000
0011
0000
0001
0010
0100
,
1000
0000
0001
0000
0100
0000
0010
0000
0100
0000
0001
0000
1000
0001
1000
0000
,
0000
0000
1001
0000
0000
0000
0011
0000
0000
0000
0010
0100
1000
0000
0000
0000
,
0001
0000
0010
0000
0100
0000
1000
0000
0001
0000
0100
0000
0010
1000
0010
0000
,
0000
0000
1010
0000
0010
0000
0110
0000
0000
0000
0100
0000
0001
0100
0001
1000
,
0100
0000
0010
0000
0001
0000
1000
0000
0100
0000
0010
0000
0001
1000
0001
0000
,
0000
0000
1001
0000
1000
0000
1010
0000
0000
0000
0010
0000
0100
0001
0100
0001
,
1000
0000
0001
0000
0010
0000
0100
0000
1000
0000
0001
0000
0100
0001
0100
0000
,
0000
0101
0001
1001
0000
1000
0001
0010
,
0100
1000
0010
0100
0001
1000
0100
0010
,
0001
0100
0010
1000
0100
0010
0001
1000
,
0001
1000
1100
0100
1000
0001
0101
0100
,
0010
1000
1010
0010
0100
0001
0011
0010
,
0100
1000
0101
0001
1000
0100
0011
0001
,
1000
0000
0010
0000
0100
0001
1000
0100
0010
0001
1000
0010
0100
0001
1000
0001
,
1000
0001
1001
1000
0100
1000
1100
0100
,
0010
0100
0110
0010
0001
1000
1001
0001
,
0100
0001
0101
0100
0010
1000
1010
0010
,
0100
0001
1000
0100
0010
0001
1000
0010
0100
0001
0010
0100
1000
0001
1000
0001
,
1000
0000
0001
0000
1001
0000
1000
0001
0100
0000
0001
0000
0101
0000
0100
0010
,
1000
0000
0010
0000
1010
0000
1000
0001
0010
0000
0001
0000
0011
0000
0010
0100
,
1000
0000
0100
0000
1100
0000
1000
0001
0100
0000
0010
0000
0110
0000
0100
0001
,
1000
0000
0100
0000
0010
0001
1000
0010
0100
0001
0010
0100
1000
0001
0010
0100
,
1000
0000
0100
0000
1100
0000
1000
0001
0100
0000
0001
0000
0101
0000
0100
0010
,
1000
0000
0010
0000
1010
0000
1000
0001
1000
0000
0100
0000
0110
0000
0010
0000
,
0001
1000
0001
1000
0010
0100
0010
0100
,
0002
0000
0000
0003
,
0001
0000
0100
0000
0010
0000
0100
0000
0001
0000
1000
0000
0010
1000
0010
0000
,
0000
1010
0000
0011
0000
0010
0100
0010
,
0001
0000
0010
0000
0100
0000
1000
0000
0001
0000
1000
0000
0010
0100
0010
0000
,
0000
1010
0000
0101
0000
0001
0100
0010
,
1000
0000
0001
0000
0010
0000
0001
0000
1000
0000
0100
0000
0010
0001
1000
0000
,
0000
1010
0000
1100
0000
1000
0100
0010
,
0001
0000
1000
0000
0010
0000
0100
0000
0010
0000
1000
0000
0001
1000
0001
0000
,
0000
0000
1001
0000
0000
0000
1100
0000
0000
0000
0100
0010
0001
0000
0000
0000
,
1000
0000
0100
0000
0010
0000
0001
0000
1000
0000
0010
0000
0100
0001
0100
0000
,
0000
0000
0101
0000
0100
0000
0110
0000
0000
0000
0010
0000
1000
0010
1000
0001
,
0010
0000
0100
0000
1000
0000
0001
0000
0010
0000
0100
0000
1000
0001
1000
0000
,
0000
0000
1001
0000
0001
0000
0101
0000
0000
0000
0100
0000
0010
1000
0010
1000
,
0001
0000
1000
0000
0100
0000
0010
0000
0001
0000
1000
0000
0010
1000
0010
0000
,
0000
1010
1000
1001
0000
0001
1000
0100
,
0010
0001
0100
0010
1000
0001
0010
0100
,
1000
0010
0100
0001
0010
0100
1000
0001
,
1000
0100
1000
0000
0001
0000
0100
0001
,
0000
0010
0000
0100
0000
1000
0010
1000
,
0001
0010
0001
0000
0100
0000
0010
1000
,
0000
0001
0000
0100
0000
0001
0010
0001
,
2002
0000
0000
0000
,
0000
0000
0000
0000
,
3003
0000
0000
0000
;
