#TITLE:i feel ...;
#SUBTITLE:;
#ARTIST:AKIRA YAMAOKA;
#TITLETRANSLIT:;
#SUBTITLETRANSLIT:;
#ARTISTTRANSLIT:;
#GENRE:;
#CREDIT:;
#MUSIC:i feel....mp3;
#BANNER:i feel....png;
#BACKGROUND:i feel...-bg.png;
#CDTITLE:;
#SAMPLESTART:0.000;
#SAMPLELENGTH:0.000;
#SELECTABLE:YES;
#OFFSET:-0.251;
#BPMS:0.000=141.000;
#STOPS:;
#DISPLAYBPM:141.000;
#BGCHANGES:;
#FGCHANGES:;

//--------------- dance-single - HellKiteChaos ----------------
#NOTES:
     dance-single:
     HellKiteChaos:
     Challenge:
     15:
     0,0,0,0,0:
0000
0000
0000
0000
,
0000
0000
0000
0000
,
0000
0000
0000
0000
,
0000
0000
0000
0000
,
2000
0000
0000
3002
0000
0000
0103
0000
0010
0000
1000
0010
1000
0001
0100
0001
,
2000
0000
0000
3200
0000
0000
1300
0000
0001
0000
0010
0001
1000
0001
1000
0100
,
0020
0000
0000
0032
0000
0000
1003
0000
0100
0000
1000
0000
0001
1000
0001
1000
,
0002
0000
0100
0000
1000
0000
0013
0100
,
2000
0000
0000
3002
0000
0000
0103
0000
0010
1000
0010
1000
0001
0010
0001
0010
,
0200
0000
0000
2300
0000
0000
3010
0000
0100
0010
0100
0001
1000
0010
1000
0001
,
0100
0000
0010
0100
0001
0000
1000
0000
0001
0000
1000
0100
0010
0000
0001
0000
,
1000
0000
0000
0100
0000
0000
0010
0000
0001
0000
1000
0001
1000
0000
0010
0000
,
0200
0000
0000
0302
0000
0000
0103
0000
0001
0000
1000
0010
1000
0001
0100
0010
,
2000
0000
0000
3020
0000
0000
1030
0000
0001
0000
0010
0001
1000
0100
0010
0001
,
1000
0100
0110
0001
1000
0010
0110
0100
,
0001
0000
1000
0010
0000
1000
0001
0000
1000
0100
0000
0010
0001
0000
1000
0000
,
0200
0000
0000
0320
0000
0000
0130
0000
0010
0001
0010
0001
0010
0000
0100
0000
,
2000
0000
0000
3200
0000
0000
1300
0000
0001
0010
0001
0010
0001
0000
1000
0000
,
0010
0100
0010
0100
0001
1000
0010
0100
,
0001
1000
0001
0100
0001
1000
0010
1000
0001
0100
0010
1000
0001
0100
0010
1000
,
0001
0000
0100
0010
0000
1000
0010
1000
0010
1000
0001
0100
0001
0100
0010
1000
,
0010
0000
1000
0001
0000
0001
0100
0010
0100
0001
0100
0010
1000
0001
0010
0100
,
1000
0000
0001
0000
1000
0100
0001
0100
1000
0000
0100
0000
1000
0100
0001
0100
,
1000
0000
0100
0000
1000
0100
0001
0100
1000
0100
0001
0100
1000
0100
0010
0001
,
1000
0000
0001
1000
0000
1000
0010
0100
0001
0010
0001
0010
0100
1000
0100
1000
,
0001
0000
0001
1000
0000
0010
0100
0001
1000
0001
1000
0100
0010
0001
1000
0100
,
0010
0000
0001
0010
1000
0010
0001
0000
0010
0000
0001
0010
1000
0010
0001
0000
,
0010
0100
1000
0001
0010
0100
1000
0100
1000
0001
0100
0010
1000
0001
0100
0001
,
1000
0100
1100
0000
0001
0100
0101
0000
,
1000
0010
1010
0000
0001
0100
0010
1000
,
0001
0010
0011
0000
0100
1000
1100
0000
,
1000
0001
0100
0010
,
1000
0000
0001
0010
0000
0001
0100
0000
0010
1000
0000
0001
0100
0000
0010
0000
,
1000
0000
0001
0100
0000
0001
0010
0000
0100
1000
0000
0001
0100
0000
0010
0000
,
1000
0100
1100
1000
0001
0100
0101
0100
,
0010
0000
0010
0000
1000
0000
1000
0000
0001
0000
0100
0000
0010
1000
0001
1000
,
0001
0000
0010
0001
1000
0000
0001
0000
1000
0000
0010
1000
0001
0000
1000
0000
,
0100
0000
0010
0001
0010
0000
0100
0000
1000
0000
0001
0100
0001
0000
0100
0000
,
0010
1000
0010
1000
0001
0000
1000
0100
1000
0100
0010
0000
0001
1000
0100
0010
,
0001
0000
0000
0000
,
1000
0000
0010
0100
0000
0001
0100
0001
0100
0001
1000
0010
1000
0010
0100
0001
,
0100
0000
0001
1000
0000
1000
0010
0100
0010
1000
0010
0100
0001
1000
0100
0010
,
0001
0000
1000
0000
0001
0010
1000
0010
0001
0000
0010
0000
0001
0010
1000
0010
,
0001
0000
0010
0000
0001
0010
1000
0010
0001
0010
1000
0010
0001
0010
0100
1000
,
0001
0000
1000
0001
0000
0001
0100
0010
1000
0100
1000
0100
0010
0001
0010
0001
,
1000
0000
1000
0001
0000
0100
0010
1000
0001
1000
0001
0010
0100
1000
0001
0010
,
0100
0000
1000
0100
0001
0100
1000
0000
0100
0000
1000
0100
0001
0100
1000
0000
,
0100
0010
0001
1000
0100
0010
0001
0010
0001
1000
0010
0100
0001
1000
0010
1000
,
0001
0000
0100
0010
0000
1000
0010
1000
0010
1000
0001
0100
0001
0100
0010
1000
,
0010
0000
1000
0001
0000
0001
0100
0010
0100
0001
0100
0010
1000
0001
0010
0100
,
1000
0000
0001
0000
1000
0100
0001
0100
1000
0000
0100
0000
1000
0100
0001
0100
,
1000
0000
0100
0000
1000
0100
0001
0100
1000
0100
0001
0100
1000
0100
0010
0001
,
1000
0000
0001
1000
0000
1000
0010
0100
0001
0010
0001
0010
0100
1000
0100
1000
,
0001
0000
0001
1000
0000
0010
0100
0001
1000
0001
1000
0100
0010
0001
1000
0100
,
0010
0000
0001
0010
1000
0010
0001
0000
0010
0000
0001
0010
1000
0010
0001
0000
,
0010
0100
1000
0001
0010
0100
1000
0100
1000
0001
0100
0010
1000
0001
0100
0001
,
2000
0000
0000
0000
,
3000
0000
0000
0000
;
