#TITLE:dream of love;
#SUBTITLE:;
#ARTIST:Kaori Nishina;
#TITLETRANSLIT:;
#SUBTITLETRANSLIT:;
#ARTISTTRANSLIT:;
#GENRE:;
#CREDIT:;
#MUSIC:dream of love.mp3;
#BANNER:dream of love.png;
#BACKGROUND:dream of love-bg.png;
#CDTITLE:;
#SAMPLESTART:52.464;
#SAMPLELENGTH:15.000;
#SELECTABLE:YES;
#OFFSET:-0.395;
#BPMS:0.000=114.000;
#STOPS:;
#BGCHANGES:;
#FGCHANGES:;

//--------------- dance-single - HellKiteChaos ----------------
#NOTES:
     dance-single:
     HellKiteChaos:
     Challenge:
     11:
     0,0,0,0,0:
0000
0000
0000
0000
,
0000
0000
0000
0000
0000
0000
0000
0000
0000
0000
0000
0000
1010
0000
0000
0101
,
0000
0000
1100
0000
0000
0000
1000
0000
0001
0000
0000
0000
0011
0000
0000
1100
,
0000
0000
0101
0000
0000
0001
0100
0000
0010
0000
0000
0000
0020
0000
0000
0000
,
1030
0000
1000
0000
0100
0000
0001
0000
0100
0000
1000
0000
0001
0010
0001
0100
,
0001
1000
0100
0100
1000
0000
0001
0001
,
1000
0000
0010
0000
0000
0000
0100
0000
0010
0000
0000
0000
1000
0010
1000
0100
,
1000
0001
0000
1000
0001
0000
0100
0001
,
0010
0000
0001
0000
0100
0000
0100
0000
0100
0000
0100
0000
0010
1000
0010
0100
,
0010
0000
0100
0000
0000
0010
0100
0000
0001
0000
0000
0000
1000
0000
0100
0000
,
1000
0000
0001
0000
0000
0000
0100
0000
0101
0000
0000
0000
0100
0010
0100
0001
,
0100
0000
0001
0000
0000
0001
1000
0000
0100
0000
0000
0000
0010
0000
0001
0000
,
0100
0010
1010
1010
0101
0101
0001
0002
,
0000
0000
0000
0000
0103
0000
0010
2000
,
0000
0000
0000
0000
0000
0000
0000
0000
3100
0000
0000
0000
0010
0000
0000
0011
,
0000
0001
0000
1000
1000
0100
1000
0001
,
0100
0000
0010
0100
0001
0000
0010
0020
,
0000
0000
0130
2000
,
0000
0000
0000
0000
0000
0000
0000
0000
3010
0000
0000
0000
0010
0000
0000
0100
,
0000
0102
0000
0000
1003
0000
0100
0000
,
1000
0000
0000
0000
0001
0000
0000
0000
0010
0000
0100
0000
1000
0100
0000
0100
,
0000
0100
0000
0000
1000
0000
0001
0000
0100
0000
0000
0000
0010
0100
0000
0010
,
0100
0000
0001
0000
1000
0000
0000
0000
1001
0000
0000
0000
0001
0010
0000
0010
,
0000
0100
0010
0100
1000
0000
0001
0100
,
0010
0000
1000
0000
0100
0000
0010
0000
0100
0000
0010
0000
0011
0000
0000
0011
,
0000
0000
1100
0000
0000
0000
0100
0000
1000
0000
0000
0000
1010
0000
0000
1010
,
0000
0000
0101
0000
0000
0000
0001
0000
1000
0000
0100
0000
0110
0000
0000
0110
,
0000
0000
1001
0000
0000
1000
0001
0000
1000
0010
0000
0000
0200
0000
0000
0000
,
0301
0000
0001
0000
0101
0000
0101
0000
1010
0000
1010
0000
1010
0000
0000
1001
,
0000
0000
1010
0000
0000
0000
0100
0000
0001
0000
0000
0000
0011
0000
0000
1001
,
0000
0000
0011
0000
0000
0000
0100
0000
1000
0000
0000
0000
0011
0000
0000
0110
,
0000
0000
1100
0000
0000
0100
1000
0000
0001
1000
0000
0000
0010
0000
0000
0000
,
0100
0000
0000
0000
0110
0000
0110
0000
1001
0000
1001
0000
0001
0010
0001
0100
,
0001
1000
0100
0100
1000
0000
0001
0001
,
1000
0000
0010
0000
0000
0000
0100
0000
0010
0000
0000
0000
1000
0010
1000
0100
,
1000
0001
0000
1000
0001
0000
0100
0001
,
0010
0000
0001
0000
0100
0000
0100
0000
0100
0000
0100
0000
0010
1000
0010
0100
,
0010
0000
0100
0000
0000
0010
0100
0000
0001
0000
0000
0000
1000
0000
0100
0000
,
1000
0000
0001
0000
0000
0000
0100
0000
0101
0000
0000
0000
0100
0010
0100
0001
,
0100
0000
0001
0000
0000
0001
1000
0000
0100
0000
0000
0000
0010
0000
0001
0000
,
0100
0000
0010
0000
1010
0000
1010
0000
1100
0000
1100
0000
1000
0100
1000
0010
,
1000
0001
0010
0010
0001
0000
1000
1000
,
0001
0000
0100
0000
0000
0000
0010
0000
0100
0000
0000
0000
0001
0100
0001
0010
,
0001
1000
0000
0001
1000
0000
0010
1000
,
0100
0000
1000
0000
0010
0000
0010
0000
0010
0000
0010
0000
0100
0001
0100
0010
,
0100
0000
0010
0000
0000
0100
0010
0000
1000
0000
0000
0000
0001
0000
0010
0000
,
0001
0000
1000
0000
0000
0000
0010
0000
1010
0000
0000
0000
0010
0100
0010
1000
,
0010
0000
1000
0000
0000
1000
0001
0000
0010
0000
0000
0000
0100
1000
0000
0000
,
0001
0100
0000
0000
0010
1000
0000
0000
0001
0010
0100
1000
0000
0000
0000
0000
;
