#TITLE:WOOKIE WOOKIE;
#SUBTITLE:;
#ARTIST:MACHOMAN;
#TITLETRANSLIT:;
#SUBTITLETRANSLIT:;
#ARTISTTRANSLIT:;
#GENRE:;
#CREDIT:;
#MUSIC:WOOKIE WOOKIE.mp3;
#BANNER:WOOKIE WOOKIE.png;
#BACKGROUND:WOOKIE WOOKIE-bg.png;
#CDTITLE:./CDTITLES/Dancemania EX9.png;
#SAMPLESTART:0.680;
#SAMPLELENGTH:15.000;
#SELECTABLE:YES;
#OFFSET:-0.277;
#BPMS:0.000=137.000;
#STOPS:;
#BGCHANGES:;
#FGCHANGES:;

//--------------- dance-single - HellKiteChaos ----------------
#NOTES:
     dance-single:
     HellKiteChaos:
     Challenge:
     13:
     0,0,0,0,0:
0000
0000
0000
0000
,
0000
0000
0000
0000
,
0000
0000
0100
0100
0010
1000
0100
0100
,
0010
0000
0001
0000
1001
0000
1000
0100
0010
0000
0010
0000
1001
0000
0001
0100
,
0010
0010
1000
1000
0001
0001
0100
0010
,
1000
0100
0010
0001
0010
0001
0010
0000
,
0001
1000
0100
0100
0010
0010
0100
0010
,
0100
0000
1000
0000
0001
0000
1000
0001
0000
1000
0001
0000
0100
0000
0010
1000
,
0001
0000
0000
0000
1000
0000
0001
0100
0000
0001
0100
0000
0001
0000
1000
0000
,
0100
0000
0000
0000
0010
0000
0001
0010
0000
0001
0010
0000
0001
0000
0001
0000
,
0100
0000
0020
1000
1030
0010
2000
0010
,
3010
1000
0001
0000
0100
0000
0110
0000
,
0000
0000
0010
0100
0001
1000
0100
0010
,
0001
0000
1000
0001
0010
0100
1000
0001
,
0100
0000
0020
1000
1030
0010
0200
0001
,
0301
0000
0100
0000
1010
0000
0000
1001
0000
0000
0101
0000
0000
0000
0001
1000
,
0001
0000
1000
0000
0100
1000
0100
0000
0010
0001
0010
0000
0001
1000
0000
1000
,
0000
0000
0001
0000
0100
0000
0010
0000
0100
0000
0001
0000
1000
0010
0000
0010
,
0000
0000
0200
0001
0301
0100
0020
1000
,
1030
0010
0100
0001
0010
0100
1000
0001
,
1001
0000
0000
0000
1100
0000
1000
0000
1001
0000
0001
0000
0100
0010
0000
0010
,
0000
0000
0010
0100
0001
1000
0010
0100
,
0001
0000
2000
0100
3100
1000
0002
0010
,
0013
0001
1000
0010
0100
0001
0010
0100
,
1000
0000
0001
0100
0001
1000
0001
0100
,
0001
1000
0020
1030
0002
1003
0020
1030
,
0001
0000
0100
0001
1000
0100
1000
0001
,
0100
0001
1000
0000
1100
0000
1001
0000
,
0011
0000
0001
0010
0011
0001
1000
0100
,
1100
1000
0001
1000
0010
0100
0001
0000
,
1000
0001
0101
0100
0010
1000
1010
0010
,
1000
0000
0001
0000
1001
0000
1000
0100
0010
0000
0010
0000
1001
0000
0001
0100
,
0010
0010
1000
0001
1000
0001
0100
0001
,
1000
0001
1000
0010
1000
0001
0100
0000
,
0001
1000
0100
1000
1001
0001
0100
0001
,
1001
0000
1000
0000
1001
0000
0001
0010
0100
0000
0010
0100
1000
0000
0100
1000
,
0001
1000
0002
0000
0203
0000
0320
0000
,
1030
0000
0000
0000
1001
0000
1000
0100
0010
0000
0010
0000
1001
0000
0001
0100
,
0010
0010
2000
0000
3200
0000
0320
0000
,
0031
0000
2000
3020
2030
3020
0230
0000
,
0301
2000
3002
0023
,
0130
0000
0000
0000
1001
0000
1000
0010
0100
0000
0010
0100
0001
0000
0100
0001
,
1000
0001
2000
0000
3200
0000
0320
0000
,
0031
0000
0020
0032
0023
0032
0203
0000
,
0310
0000
0000
0000
0100
0000
0001
0100
0001
0000
1000
0001
1000
0000
0010
1000
,
0010
0200
0000
0010
0310
0000
1001
0001
,
0100
0001
0010
0001
1000
0001
1000
0100
,
0010
0001
1000
0000
0001
1000
0100
0100
,
1000
0000
0001
0000
0100
0000
0100
0000
0001
0000
1000
0000
1001
0000
0001
0010
,
0100
0000
0100
0000
1001
0000
1000
0010
0100
0000
0100
0000
0001
0000
0100
0000
,
0010
0100
1000
0100
0010
0100
0001
1000
,
0010
0100
0001
0000
1000
0001
1000
0100
,
0010
0000
0100
0000
0001
0000
0100
0000
0010
0000
0100
0000
1100
0000
1000
0100
,
0010
0000
0100
0010
0001
0000
0010
0001
1000
0000
0001
0000
2002
0000
0000
0000
,
0000
0000
0000
3003
;
