#TITLE:TRIP MACHINE CLIMAX;
#SUBTITLE:;
#ARTIST:DE-SIRE;
#TITLETRANSLIT:;
#SUBTITLETRANSLIT:;
#ARTISTTRANSLIT:;
#GENRE:Dance Dance Revolution 4th Mix,Dancing Stage Euromix 2;
#CREDIT:;
#MUSIC:TRIP MACHINE CLIMAX.mp3;
#BANNER:TRIP MACHINE CLIMAX.png;
#BACKGROUND:TRIP MACHINE CLIMAX-bg.png;
#CDTITLE:;
#SAMPLESTART:0.000;
#SAMPLELENGTH:0.000;
#SELECTABLE:YES;
#OFFSET:-0.028;
#BPMS:0.000=180.000;
#STOPS:;
#DISPLAYBPM:180.000;
#BGCHANGES:;
#FGCHANGES:;

//--------------- dance-single - HellKiteChaos ----------------
#NOTES:
     dance-single:
     HellKiteChaos:
     Challenge:
     17:
     0,0,0,0,0:
0000
0000
0000
0000
,
1000
0100
1000
0100
1000
0100
1000
0100
,
1000
0100
1000
0100
1000
0000
0001
0100
,
0001
0100
0001
0100
0001
0100
0001
0100
,
0001
0100
0001
0100
0001
0000
0000
0000
,
0100
0010
0100
0010
1000
0010
0100
0010
,
0001
0010
0100
0010
1000
0010
0100
0010
,
0001
0010
0100
0010
1000
0010
0100
0010
,
0100
0010
1000
0010
0001
0000
0110
0000
,
0001
0010
0100
0010
0001
0100
0010
0100
,
0001
0010
0100
0010
0001
0100
0010
1000
,
0100
0010
0100
1000
0010
0100
0010
1000
,
0100
0000
0010
0001
0010
0001
0010
0100
1000
0100
1000
0001
0100
0001
0100
0000
,
0001
0100
0010
0100
0001
0010
0100
0010
,
0001
0100
0010
1000
0100
0010
0100
1000
,
0010
0100
0100
0100
0010
0100
0100
0100
,
0010
0100
0010
0100
0010
0100
0010
0100
0010
0100
0010
0100
0010
0100
0010
0100
,
0010
1000
0100
0010
0100
1000
0010
0100
,
0010
0000
1000
0000
0100
0000
0010
0001
0010
0000
0100
1000
0001
0000
0100
0010
,
1000
0100
1000
0010
0100
0010
1000
1000
,
0001
1000
0001
1000
0001
1000
0001
1000
0001
1000
0001
1000
0001
1000
0001
0000
,
1000
0100
1000
0010
0100
0010
1000
0100
,
0010
0001
0100
0001
0010
0001
1000
0100
,
1100
1000
1000
1000
0101
0001
0001
0001
,
0010
0001
0100
0000
0010
1000
0100
0000
0010
0001
0100
0000
0010
1000
0100
0000
,
0000
0000
2002
0000
0000
0000
3003
0000
1001
0000
1000
0000
0100
0000
0010
0001
,
1000
0001
0010
0000
0100
0000
0010
0001
0100
0000
0001
0000
1000
0000
0010
1000
,
0001
1000
0010
0000
0100
0000
1010
0000
0100
0000
0010
0000
1000
0000
0100
0010
,
0001
0010
0100
0000
0100
0000
1000
0000
1100
0000
0001
0100
0000
0000
0010
1000
,
0000
0000
0001
0010
0000
0000
0010
0000
1001
0000
0001
0000
0100
0000
0010
1000
,
0001
1000
0010
0000
0100
0000
0010
1000
0100
0000
1000
0000
0001
0000
0010
0001
,
1000
0001
0010
0000
0100
0000
1100
0000
0100
0000
0010
0000
0001
0000
0100
0010
,
1000
0010
0100
0000
0100
0000
0001
0000
0100
0010
0100
0000
0101
0000
0010
0000
,
1100
0010
0100
0100
0010
0010
0000
0101
,
0100
0010
0100
0010
0100
0000
0010
0100
0001
0000
0001
0000
0001
0000
1000
0100
,
1000
0000
0100
0010
0001
0010
0001
0000
0011
0000
0001
0000
1000
0000
1200
0000
,
0000
0310
0000
0001
0010
0000
0001
0000
0101
0000
1000
0000
1100
0000
0001
0000
,
0202
0000
0000
0000
0303
0000
0000
0000
0010
0000
0101
0000
0000
0000
0100
0010
,
1000
0010
0000
1000
0010
1000
0100
0000
0010
0000
0011
0000
0000
0000
0001
1000
,
0100
1000
0001
0000
0000
0000
1100
0000
1001
0000
0001
0000
0000
0100
0010
0100
,
0000
0000
0000
0010
0000
0000
1000
0000
0000
0001
0000
0000
1000
0000
0000
0000
0000
0000
0000
0000
0000
0000
0000
0000
1010
0000
0000
0000
0000
0000
0000
0000
0101
0000
0000
0000
0000
0000
0000
0000
1010
0000
0000
0000
0000
0000
0000
0000
,
1100
0000
0000
0000
0000
0000
0000
0000
0011
0000
0000
0000
0000
0000
0000
0000
1100
0000
0000
0000
0000
0000
0000
0000
0011
0000
0000
0000
0000
0000
0001
0000
0000
0000
0000
0000
0100
0000
0000
0000
0000
0000
0010
0000
0000
1000
0000
0000
,
0100
0000
0010
0001
0100
0000
0100
0000
0012
0000
0100
0000
0000
0000
0013
0000
,
0100
0000
0010
0100
1000
0000
0010
0100
0001
0000
0100
0000
0100
0000
0010
0000
,
0100
0100
0010
0100
0101
0000
1100
0000
,
0101
0000
0000
0000
1001
0000
0000
0000
1100
0000
1000
0000
0010
0000
1000
0010
,
0100
0010
1000
0001
0100
0000
0000
0001
1000
0000
0100
0000
0010
0000
0000
0001
,
0100
0000
0001
0000
0010
0000
0100
0000
1100
0000
1000
0000
0001
0000
0100
0010
,
0100
0001
0100
0000
0001
0000
0000
1000
1100
0000
0000
1000
1100
0000
0000
1000
,
1100
0000
0101
0000
1000
0100
1100
1001
,
0001
0100
0110
0101
0010
1000
1010
1001
,
0101
0000
0101
0001
1000
0100
1100
0001
,
1001
0101
0001
1100
1001
0011
1100
0110
,
1100
0000
1000
0100
0011
0001
0101
0011
,
0001
0101
0110
1000
1001
0101
1010
1001
,
0101
0101
1010
0101
0001
1000
1001
1010
,
0010
0110
1010
1001
0011
1001
0011
1001
,
1100
0000
0000
0010
0100
0000
0100
0000
2000
0000
0100
0000
0000
0000
3020
0000
,
0000
0000
0230
0000
0320
0032
0023
2030
,
3002
0000
0203
0000
2300
0000
3200
0000
0301
0000
1000
0000
1100
0000
0000
0010
,
0001
0000
0100
0000
0101
0000
0000
0010
1000
0000
0100
0000
1100
0000
0000
0000
,
0101
1100
0011
0000
0010
0100
0020
0000
,
0000
0031
0100
0101
0101
0010
0101
0101
,
0010
0000
1000
0000
0100
0000
0000
1000
0010
0000
0100
0000
0110
0000
0000
0001
,
0010
0100
0110
0000
1100
0100
0010
0100
,
0101
0010
0100
1100
0000
2002
0000
0000
,
0000
0000
0000
0000
,
3003
0000
0000
0000
;
