#TITLE:TRIBAL DANCE (ALMIGHTY MIX);
#SUBTITLE:;
#ARTIST:2 UNLIMITED;
#TITLETRANSLIT:;
#SUBTITLETRANSLIT:;
#ARTISTTRANSLIT:;
#GENRE:;
#CREDIT:;
#MUSIC:TRIBAL DANCE (ALMIGHTY MIX).mp3;
#BANNER:TRIBAL DANCE (ALMIGHTY MIX).png;
#BACKGROUND:TRIBAL DANCE (ALMIGHTY MIX)-bg.png;
#CDTITLE:;
#SAMPLESTART:0.000;
#SAMPLELENGTH:0.000;
#SELECTABLE:YES;
#OFFSET:-0.024;
#BPMS:0.000=136.000;
#STOPS:;
#DISPLAYBPM:136.000;
#BGCHANGES:;
#FGCHANGES:;

//--------------- dance-single - HellKiteChaos ----------------
#NOTES:
     dance-single:
     HellKiteChaos:
     Hard:
     11:
     0,0,0,0,0:
0000
0000
0000
0000
,
0000
0000
0000
0000
,
0000
0000
0000
0000
,
1000
0010
0100
1001
,
0001
0000
0100
0002
0000
1003
0100
0010
,
0001
0000
0000
0010
0000
0000
0001
0000
0000
0000
1000
0000
0100
0000
1000
0000
,
0002
0000
0103
0000
0010
0100
0010
1000
,
0001
0000
0000
0100
0000
0000
0020
0000
0000
0000
1030
0000
0100
0000
0010
0000
,
0001
0000
1000
0000
0001
0200
0000
0301
,
0010
0000
0000
0100
0000
0000
2000
0000
0000
0000
3001
0000
0100
0000
0010
0000
,
2000
0000
3001
0000
0100
0010
0000
0100
,
0010
0000
0000
1000
0000
0000
0002
0000
0000
0000
0103
0000
0010
0000
2000
0000
,
0001
0001
0001
3002
,
1000
1000
1000
2003
,
0100
0000
0100
0000
3100
0000
0100
0010
,
0100
0010
0001
1000
0001
0000
1001
0000
,
0001
0100
0001
0100
0010
0000
1010
0000
,
1000
0100
1000
0100
0010
0001
1000
0000
,
0001
0010
0001
0100
0010
1000
0001
1000
,
0001
0010
0001
1000
0110
0000
1001
0000
,
0001
0100
0001
0100
0010
1000
0001
0000
,
1000
0001
1000
0010
0100
0010
1000
0000
,
0100
1000
0001
0010
0100
1000
0001
0100
,
0001
0010
0100
0010
0001
0000
1001
0000
,
1000
0010
0100
0100
,
0001
0100
1000
0100
0001
0100
1000
0100
,
0001
0100
0001
1000
,
0010
1000
0010
0001
0010
1000
0001
1000
,
0001
0000
0010
0000
0100
1000
0100
0000
,
0010
0001
0010
0100
1000
0001
1000
0000
,
0010
1000
0001
0010
0100
1000
0010
0100
,
0001
1000
0001
1001
,
1000
0100
1000
0010
0000
0010
0100
0010
,
1000
0000
0000
0001
0000
0000
2000
0000
0000
0000
3001
0000
0100
0000
0100
0000
,
0002
0000
1003
0000
0100
0010
0000
0100
,
0010
0000
0000
0001
0000
0000
2000
0000
0000
0000
3010
0000
0100
0000
0010
0000
,
1000
0000
0002
0000
0003
0020
0000
0130
,
1000
0000
0000
0100
0000
0000
0010
0000
0000
0000
0001
0000
1000
0000
0001
0000
,
0020
0000
0130
0000
1000
0010
0000
0100
,
0010
0000
0000
1000
0000
0000
0002
0000
0000
0000
0103
0000
0010
0000
1000
0000
,
0002
1000
1000
0103
,
2000
0001
0001
3100
,
0010
0001
1000
0010
0100
0001
1000
0010
,
0100
0010
1000
0001
0010
0100
0010
0001
,
2000
0000
0001
0000
3001
0000
0001
1000
,
0002
0000
1000
0000
1003
0000
1000
0001
,
2000
3100
0020
0031
,
1000
0010
0100
0001
,
2002
3003
0000
0000
;

//--------------- dance-single - HellKiteChaos ----------------
#NOTES:
     dance-single:
     HellKiteChaos:
     Challenge:
     13:
     0,0,0,0,0:
0000
0000
0000
0000
,
0000
0000
0000
0000
,
0000
0000
0000
0000
,
1000
0010
0100
0001
1000
0000
1001
0000
,
0001
0010
0001
0100
0001
2000
0000
3001
,
0100
0000
0010
1000
0000
0010
1000
0000
0001
0000
0100
0000
1000
0000
0100
0000
,
0001
0000
1000
0000
0100
0000
1000
0000
0001
0000
2000
0000
0000
3020
0000
0000
,
0130
0010
0100
2001
0000
3100
0100
0010
,
0001
0010
0001
1000
0001
0200
0000
0310
,
1000
0000
0001
1000
0000
0001
1000
0000
0100
0000
0010
0000
0100
0000
0010
0000
,
0002
0000
0000
0000
1003
0000
0100
0000
0001
0000
0200
0000
0000
2300
0000
0000
,
3002
0000
0000
0203
0000
0000
0310
0000
0000
0000
1000
0000
0001
0000
0100
0000
,
0010
0100
0010
0100
0001
1000
0010
0100
,
0001
1000
0001
1000
0010
0100
0001
1000
,
0100
0010
0100
0010
0001
1000
0100
0010
,
0001
1000
0001
1000
0100
0000
0110
0000
,
0010
0000
0001
0000
0100
0000
0010
0000
1000
0000
0001
0000
0100
0000
0010
1000
,
0001
0000
1000
0000
0001
0000
1000
0000
0100
0000
0010
0001
0010
0000
0100
1000
,
0001
0000
0100
0000
0010
0000
0100
0000
0001
0000
1000
0000
0100
0000
0010
0001
,
1000
0000
0001
0000
1000
0000
0110
0000
0001
0000
1000
0000
0001
1000
0001
1000
,
0001
0000
0010
0000
0100
0000
0010
0000
0001
0000
0100
0000
0010
0000
1000
0001
,
0100
0000
0010
0000
0100
0000
0010
0000
1000
0000
0100
1000
0100
0000
0010
0001
,
1000
0000
0001
0000
0100
0000
1001
0000
0100
0000
0001
0000
1000
0000
0001
1000
,
0100
1000
0001
1000
0000
0001
0000
1000
,
0001
0000
0100
0010
0000
0100
0010
0000
1000
0000
0001
1000
0100
0000
1000
0000
,
0001
0000
1000
0001
0010
0000
0100
0000
1000
0000
0001
0000
0100
0000
0000
0000
,
0010
0000
1000
0001
0000
1000
0001
0000
0010
0000
0100
1000
0001
0000
0100
0000
,
0010
0000
1000
0001
0010
0000
0100
0000
0010
0000
0100
0000
1000
0000
0000
0000
,
0001
0000
1000
0010
0000
0100
0001
0000
1000
0000
0001
0000
1000
0000
0000
0000
,
0001
0000
1000
0100
0000
0010
0001
0000
1000
0000
0001
1000
0001
0000
0000
0000
,
0100
0010
1000
0100
0010
0001
1000
0010
,
0100
0001
1000
1001
,
1000
0100
1000
0010
1000
0002
0000
1003
,
0010
0000
0100
0001
0000
0100
0001
0000
1000
0000
0010
0000
0001
0000
0010
0000
,
1000
0000
0001
0000
0010
0000
0001
0000
1000
0000
0002
0000
0000
0203
0000
0000
,
0310
0100
0010
1002
0000
0013
0010
0100
,
1000
0100
1000
0001
1000
0020
0000
0130
,
0001
0000
1000
0001
0000
1000
0001
0000
0010
0000
0100
0000
0010
0000
0100
0000
,
2000
0000
0000
0000
3001
0000
0010
0000
1000
0000
0020
0000
0000
0032
0000
0000
,
2003
0000
0000
3020
0000
0000
0130
0000
0000
0000
0001
0000
1000
0000
0010
0000
,
0100
0001
0100
1000
0100
0001
0010
0100
,
1000
0010
0001
0010
1000
0100
1000
0010
,
1000
0100
0001
0100
1000
0010
1000
0100
,
0001
0100
0010
0001
0100
0010
1000
0000
,
0001
0100
0001
0100
0000
0010
1000
0000
0001
0000
1000
0000
0100
0000
0000
0000
,
0010
0001
0010
0001
0000
1000
0100
0000
0001
0000
0100
0000
1000
0000
0100
0000
,
0010
0001
0010
0001
0000
1000
0010
0000
0100
0000
0010
0000
0100
0000
0001
0000
,
1000
0001
1000
0100
0000
0010
0001
0000
1000
0100
1000
0000
0001
0010
0100
0000
,
2002
3003
0000
0000
;
