#TITLE:THE 7 JUMP;
#SUBTITLE:;
#ARTIST:KEN D;
#TITLETRANSLIT:;
#SUBTITLETRANSLIT:;
#ARTISTTRANSLIT:;
#GENRE:;
#CREDIT:;
#MUSIC:THE 7 JUMP.mp3;
#BANNER:THE 7 JUMP.png;
#BACKGROUND:THE 7 JUMP-bg.png;
#CDTITLE:;
#SAMPLESTART:0.000;
#SAMPLELENGTH:0.000;
#SELECTABLE:YES;
#OFFSET:-0.271;
#BPMS:0.000=137.899;
#STOPS:;
#DISPLAYBPM:138.000;
#BGCHANGES:;
#FGCHANGES:;

//--------------- dance-single - HellKiteChaos ----------------
#NOTES:
     dance-single:
     HellKiteChaos:
     Challenge:
     11:
     0,0,0,0,0:
0000
0000
0000
0000
,
0000
0000
0000
0000
,
0000
1000
0000
1100
0000
0001
0000
0101
,
0000
1000
0000
0110
0000
0001
0000
1000
,
0000
0011
0000
0100
0000
1001
0000
0100
,
0000
0010
0000
1000
0000
0100
0100
0000
,
0020
0000
0001
0000
0130
0010
0100
1000
,
0002
0203
0320
2030
,
3200
0000
0010
0000
1300
0001
0001
1000
,
1001
0101
1010
1100
,
2000
0000
0010
0000
0001
0000
3010
0100
,
0020
2030
3200
0320
,
0031
1000
0001
0100
1000
0010
0001
1000
,
0002
0000
0100
0000
0103
0001
0100
0001
,
0101
0000
1001
0000
0101
0000
0001
1000
,
0001
0100
0001
1000
0001
0000
1000
0100
,
1100
0000
1001
0000
1100
0000
1000
0001
,
1000
0100
1000
0001
1000
0000
0000
0000
,
0001
0100
0001
0010
0002
0000
1003
0010
,
2000
0000
3001
0010
0002
0000
2003
0000
,
3001
0100
0001
0010
0002
0000
1003
0010
,
1000
0000
1010
0000
1100
0000
0000
1000
,
0100
0000
0010
0001
0100
0000
0010
1000
,
0100
0010
0001
1000
,
0010
0000
0100
0001
0010
0000
0100
1000
,
0010
0100
0010
0100
,
1001
0000
0000
1100
,
1001
0000
0101
1001
,
1010
0000
0110
1001
,
0110
0000
1010
1100
,
1001
0000
0011
0101
,
1001
0000
0110
1001
,
1000
0001
1000
0001
0100
0010
0100
0010
,
1001
1001
1001
1001
,
1000
0100
1000
0010
2000
0000
3001
0010
,
0002
0000
1003
0010
2000
0000
3002
0000
,
0013
0001
0100
0001
0020
0000
0031
0010
,
0001
0000
0011
0000
0101
0000
0000
0100
,
0010
0000
0010
1000
0001
0000
0001
0010
,
0100
1000
0001
0000
1000
0000
0001
0100
,
0010
0000
1000
0100
0010
0000
0001
1000
,
0001
0100
0010
1000
,
1001
0000
0000
1100
,
1001
0000
0110
0011
,
1001
0000
0110
0101
,
1001
0000
1010
0101
,
1010
0000
1100
0101
,
1100
1001
0011
0110
,
1000
0100
1000
0100
0010
0001
0010
0001
,
2002
0000
3003
0000
;
