#TITLE:Shades of Grey;
#SUBTITLE:;
#ARTIST:Fracus;
#TITLETRANSLIT:;
#SUBTITLETRANSLIT:;
#ARTISTTRANSLIT:;
#GENRE:;
#CREDIT:;
#MUSIC:Shades of Grey.mp3;
#BANNER:Shades of Grey.png;
#BACKGROUND:Shades of Grey-bg.png;
#CDTITLE:;
#SAMPLESTART:11.304;
#SAMPLELENGTH:15.000;
#SELECTABLE:YES;
#OFFSET:-0.051;
#BPMS:0.000=170.000;
#STOPS:;
#BGCHANGES:;
#FGCHANGES:;

//--------------- dance-single - HellKiteChaos ----------------
#NOTES:
     dance-single:
     HellKiteChaos:
     Challenge:
     12:
     0,0,0,0,0:
0000
0000
0000
0000
,
0000
0000
0000
0000
,
0000
0000
0000
0000
,
0000
0000
0000
0000
,
1000
0100
0010
0011
,
0001
0100
0010
1010
,
1000
0001
0010
0100
,
1001
0000
0000
0000
1000
0000
0001
1000
,
0001
0020
0031
2000
3001
0200
0301
2000
,
3001
0020
0031
2000
3001
0200
0301
2000
,
3001
1000
0100
1100
,
1000
0001
0100
0101
,
1000
0020
1030
0002
1003
0200
1300
0002
,
1003
0020
1030
0002
1003
0200
1300
0002
,
1003
0010
0100
0110
,
1001
0000
0000
0000
,
2000
0000
0001
3002
0000
0000
0010
0023
,
0000
0000
0100
0230
0000
1000
0300
0000
,
0100
0000
0010
0001
0000
0010
0001
0000
,
1000
0010
0100
0001
1000
0010
0100
0001
,
2000
0000
0001
3002
0000
0000
0100
0203
,
0000
0000
0010
0320
0000
1000
0000
0000
,
2030
0000
3002
0000
,
0103
0000
0000
0000
,
0110
0000
0100
0002
0000
0003
1000
0020
,
0000
0030
1000
0200
0000
0310
0000
0000
,
0011
0000
0000
1100
0000
0000
1001
0000
,
0001
0010
0100
1000
0001
0010
0100
1000
,
0001
1000
0010
1010
,
1000
0001
0100
0101
,
0001
1000
1100
0011
,
0101
0110
1001
0000
,
2010
0010
0001
0010
,
0001
0010
0010
3001
,
0012
1000
0010
0010
,
1000
0010
1000
0103
,
0102
1000
0010
1000
,
0100
1000
0100
1003
,
2100
0001
0010
3001
,
0101
1100
0101
1001
,
1000
0010
1000
0010
1000
0010
0100
0001
,
0010
0001
0010
0001
0010
0100
1000
0001
,
0100
0010
1000
0010
1000
0010
1000
0001
,
1000
0100
0010
0001
1000
0001
1000
0001
,
0100
0010
0100
0010
1000
0001
0010
0100
,
1000
0001
1000
0001
1000
0010
0100
0001
,
0011
0000
1100
0000
,
0101
1010
1100
0011
,
0001
0010
0100
1000
0001
0010
0100
0010
,
0001
1000
0010
0100
0001
1000
0010
0100
,
0010
1000
0100
1000
0100
0010
0001
1000
,
0001
1000
0010
1000
0001
1000
0100
1000
,
0100
1000
0001
0100
0010
1000
0010
1000
,
0001
0100
0001
0010
0001
0010
0100
1000
,
0100
0010
0001
1000
0010
0100
0001
1000
,
0001
0001
1000
1000
1001
0000
0110
0000
,
0001
0010
0100
1000
0001
0100
0010
1000
,
0010
0100
0001
1000
0100
1000
0100
1000
,
0010
0100
0010
1000
0001
0010
0100
1000
,
0001
0001
1000
1000
1001
0000
0110
0000
,
0001
0010
0100
1000
0001
0010
0001
0000
,
1000
0010
0100
0001
1000
0010
1000
0000
,
0010
0100
0010
1000
0100
0010
0001
0100
,
1001
0000
0010
0100
,
2002
0000
3003
0000
;
