#TITLE:Saturn;
#SUBTITLE:;
#ARTIST:Mr.Saturn;
#TITLETRANSLIT:;
#SUBTITLETRANSLIT:;
#ARTISTTRANSLIT:;
#GENRE:;
#CREDIT:;
#MUSIC:Saturn.mp3;
#BANNER:Saturn.png;
#BACKGROUND:Saturn-bg.png;
#CDTITLE:;
#SAMPLESTART:26.438;
#SAMPLELENGTH:15.000;
#SELECTABLE:YES;
#OFFSET:-0.145;
#BPMS:0.000=155.000
,132.000=77.500
,148.000=155.000
;
#STOPS:;
#BGCHANGES:;
#FGCHANGES:;

//--------------- dance-single - HellKiteChaos ----------------
#NOTES:
     dance-single:
     HellKiteChaos:
     Challenge:
     14:
     0,0,0,0,0:
0000
0000
0000
0000
,
1001
1001
0000
0000
0000
0000
0000
0000
,
0000
0000
0000
0000
,
1100
1100
0000
0000
0000
0000
0000
0000
,
0000
0000
0000
0000
0000
0000
0000
0000
0000
0000
0000
0000
0001
0100
0001
0000
,
0101
0101
0000
0000
0000
0000
0000
0000
,
0000
0000
0000
0000
,
1010
1010
0000
0000
0000
0000
0000
1001
,
1001
0000
0000
1000
0000
0000
0001
0000
0100
0001
0100
0001
0100
0000
0001
0000
,
1000
0000
0000
0001
1000
0000
0000
1000
0100
0000
0000
0010
0001
0000
0000
0001
,
1000
0000
0000
1000
0010
0000
0000
0010
0100
0000
0000
0100
0001
0000
0000
0001
,
1000
0000
0000
1000
0001
0000
0000
0001
0010
0000
0000
0010
0001
0000
0000
0001
,
0100
0000
0000
0100
0010
0000
0000
0010
1000
0000
0010
0000
1000
0001
1000
0000
,
0100
0000
0000
0100
0010
0000
0100
0000
0010
0000
0000
0010
0001
0000
1000
0000
,
0001
0000
0000
0100
0010
0000
1000
0000
0001
0000
0000
1000
0100
0000
0010
0000
,
0100
0000
0000
0010
0100
0000
1000
0000
0001
0000
0000
0100
0010
0000
1000
0000
,
0001
0100
0001
0000
0100
0000
0100
0000
0010
1000
0010
1000
0000
0000
0010
0000
,
1000
0000
0001
0010
0100
0000
1000
0010
0100
0000
0001
0010
0100
0000
1000
0000
,
0000
0000
0001
1000
0010
0000
1000
0001
0010
0000
0100
1000
0001
0000
1000
0000
,
0000
0000
0001
0100
0010
0000
1000
0100
0010
0000
0001
0100
0010
0000
1000
0000
,
0000
0000
0010
0100
0001
0000
0010
0100
1000
0000
0010
0100
0001
0000
1000
0000
,
0000
0000
0001
0010
0001
0000
1000
0100
1000
0000
0001
0100
0010
0000
1000
0000
,
0000
0000
0010
1000
0010
0000
0100
0001
0100
0000
0001
0010
0100
0000
1000
0000
,
0000
0000
0001
0010
0100
0000
1000
0100
0010
0000
0001
1000
0010
0000
0100
0000
,
0010
0000
1000
0000
0001
0000
0000
0000
1000
0001
1000
0001
1000
0000
0001
0000
,
0100
0000
0010
1000
0010
0000
1000
0000
0000
0000
0001
0100
0001
0000
0100
0000
,
0000
0000
0001
0010
0001
0000
1000
0000
0000
0000
0100
1000
0100
0000
0010
0000
,
0000
0000
0001
1000
0001
0000
0010
0000
0000
0000
0100
0010
0100
0000
1000
0000
,
0000
0000
0001
1000
0001
0000
0100
0000
0000
0000
0010
1000
0010
0000
0100
0000
,
0001
0000
1000
0001
1000
0000
0001
0000
0100
0000
0001
0100
0001
0000
1000
0000
,
0010
0000
1000
0001
1000
0000
0100
0000
1000
0000
0001
0010
0001
0000
1000
0000
,
0010
0000
0100
0010
0100
0000
0010
0000
0100
0000
0001
0100
0001
0000
0100
0000
,
0010
0000
0100
0000
0010
0000
1000
0000
0001
1000
0001
1000
0001
0000
0000
0000
,
2000
0100
0010
0100
,
0010
0000
0000
0000
0000
0000
0000
0000
0100
0000
0000
0000
0000
0000
0000
0000
0010
0000
0000
0000
0000
0000
0000
0000
3000
0000
0001
0000
0000
0001
0000
0000
,
0001
0000
0000
0000
0000
0000
0000
0000
0010
0000
0000
0000
0000
0000
0001
1000
0001
0000
0000
0100
0000
0000
0100
0000
0000
0000
0000
0000
0000
0010
1000
0000
,
0001
0000
0000
1000
0000
0000
0001
0000
0000
0000
0000
0000
0000
0000
0010
0000
0100
0000
0000
0000
0100
0000
0010
0000
0100
0000
0010
0000
0001
0000
0000
0000
,
1000
0100
1000
0100
0010
0001
1000
0001
,
0010
0001
0010
0001
1000
0001
0100
0001
,
1000
0001
1000
0010
1000
0001
1000
0010
,
0100
0010
0100
0001
1000
0100
0010
0000
,
0001
0000
0000
0011
0000
0000
0010
0000
0100
0000
0000
0110
0000
0000
0010
0000
,
1100
0000
0000
1000
0000
0000
0001
0000
0101
0000
0000
0100
0000
0000
0010
0000
,
1001
0000
0000
1000
0000
0000
0100
0000
0011
0000
0000
0001
0000
0000
1000
0000
,
0010
0000
0000
0100
0001
0000
0000
0001
1000
0000
0000
1000
0100
0000
0010
0000
,
0001
1000
0100
0010
0100
0001
0100
0010
,
0100
1000
0001
0010
1000
0001
0100
1000
,
0010
0100
0010
0001
0010
0100
0010
1000
,
0001
0100
0010
1000
0100
0010
0001
0000
,
1000
0000
0010
1000
0000
0010
1000
0000
0001
0000
0010
0001
0000
0010
0001
0000
,
1000
0000
0100
1000
0000
0100
1000
0000
0001
0000
0010
0001
0000
1000
0010
0000
,
0100
0000
0001
0010
0000
0001
0100
0000
0010
0000
1000
0100
0000
1000
0001
0000
,
1000
0000
0100
0000
0010
0001
0010
0001
0010
0000
0100
0000
1000
0000
0001
0000
,
1000
0100
1000
0000
0001
0100
0001
0000
,
1000
0010
0100
0010
1000
0001
0010
0100
,
1000
0001
1000
0000
0100
1000
0100
0000
,
0010
0000
0001
0000
1000
0000
0010
0000
0100
0000
0010
0000
1000
0001
1000
0001
,
1000
0000
0001
0000
0100
0000
0010
1000
0001
0000
1000
0100
0010
0000
0001
0000
,
1000
0000
0100
0000
1000
0000
0001
0010
0100
0000
1000
0001
0100
0000
0010
0000
,
1000
0010
0000
1000
0000
0010
0000
1000
0100
0000
0010
0000
0100
0000
0010
0000
,
0001
0010
0000
0001
0000
0010
0000
0001
0100
0000
0010
0000
1000
0000
0100
0000
,
0010
0001
0000
0010
0000
0010
0000
0001
1000
0000
1000
0000
0001
0000
0001
0000
,
0100
0010
0000
1000
0000
1000
0000
0010
0100
0000
0100
0000
0001
0000
0001
0000
,
1000
0001
0000
0100
0000
0101
0000
0001
1000
0000
1000
0000
1001
0000
1001
0000
,
0001
0010
0000
0100
0000
0110
0000
1000
0001
0000
1001
0000
1001
0000
0110
0000
,
0220
0000
0000
0000
,
0330
0000
0000
0000
;
