#TITLE:SUNKiSS♄DROP~Alison Side~;
#SUBTITLE:;
#ARTIST:jun with Alison;
#TITLETRANSLIT:SUNKiSS DROP~Alison Side~;
#SUBTITLETRANSLIT:;
#ARTISTTRANSLIT:;
#GENRE:;
#CREDIT:;
#MUSIC:SUNKiSS DROP~Alison Side~.mp3;
#BANNER:SUNKiSS DROP~Alison Side~.png;
#BACKGROUND:SUNKiSS DROP~Alison Side~-bg.png;
#CDTITLE:./CDTITLES/DanceDanceRevolution SuperNOVA2.png;
#SAMPLESTART:36.321;
#SAMPLELENGTH:15.000;
#SELECTABLE:YES;
#OFFSET:0.914;
#BPMS:0.000=185.000;
#STOPS:;
#BGCHANGES:;
#FGCHANGES:;

//--------------- dance-single - HellKiteChaos ----------------
#NOTES:
     dance-single:
     HellKiteChaos:
     Challenge:
     15:
     0,0,0,0,0:
0000
0000
0000
0000
,
0000
0000
0000
0000
,
0000
0000
0000
0000
,
0000
0000
0000
0000
,
0000
0000
0000
0000
,
1000
0000
0100
0000
0001
0000
0100
1000
0001
0000
0000
0000
0001
0000
0100
0000
,
1000
0000
0100
0001
1000
0000
0000
0000
0001
0000
0010
0000
1000
0000
0010
0000
,
0001
0000
0010
0000
1000
0010
0001
0000
0000
0000
1000
0000
0010
0000
0100
0000
,
0001
0000
1000
0000
0100
0000
0010
0000
0001
1000
0001
1000
0001
0000
1000
0000
,
0002
0100
0000
0100
0000
1000
0000
1000
,
0000
0100
0000
1000
0000
0100
0000
1003
,
2000
0001
0000
0001
0000
0010
0000
0010
,
0000
0001
0000
0010
0000
0001
3000
0001
,
0100
0010
1000
0001
1000
0010
0100
0010
,
1000
0001
1000
0100
0010
0001
1000
0001
,
0010
0100
1000
0100
0010
0001
1000
0010
,
0100
0010
1000
0001
0010
0100
1000
0001
,
0200
1000
0001
1300
,
0100
0001
1000
0100
,
0020
0001
1000
0031
,
1100
0011
1010
0101
,
0100
0010
0100
0001
1000
0001
1000
0001
,
1000
0100
1000
0100
0010
0001
0010
0001
,
1000
0010
0100
0001
0010
1000
0001
0100
,
1000
0001
1000
0001
1000
0000
1001
0000
,
0001
0100
1000
0100
0001
0010
0001
0100
,
1000
0100
0001
0010
0100
0010
0001
1000
,
0001
0000
1001
0000
0000
0000
1010
0000
0000
0000
0101
0000
0000
0000
0100
0001
,
2000
0000
0001
3001
,
1000
0000
0100
0000
0001
0000
0100
0010
0100
0000
1000
0000
0001
0000
0100
0000
,
1000
0000
0100
0010
0100
0000
0001
0000
1000
0010
1000
0000
0001
0100
0001
0000
,
1000
0000
0010
0000
0001
0000
0010
0100
0010
0000
1000
0000
0001
0000
0010
0000
,
1000
0000
0010
0100
0010
0000
0001
0000
2000
0000
3000
0000
0002
0000
0003
0000
,
1000
0000
0010
0000
0001
0000
0010
0100
0010
0000
1000
0000
0001
0000
0100
0000
,
1000
0000
0100
0010
0100
0000
0001
0000
1000
0000
0100
0000
0010
0000
0001
0000
,
1000
0010
0001
0010
0000
0010
1000
0010
,
1000
0000
0100
0000
0010
0000
0002
0000
0000
0000
0003
0000
1000
0001
1000
0001
,
1000
0000
0100
0000
0001
0000
0100
0010
0100
0000
1000
0000
0001
0000
0100
0000
,
1000
0000
0100
0010
0100
0000
0001
0000
1000
0010
0100
0000
0001
0100
0010
0000
,
1000
0000
0010
0000
0001
0000
0010
0100
0010
0000
1000
0000
0001
0000
0010
0000
,
1000
0000
0010
0100
0010
0000
0001
0000
2000
0000
3000
0000
0002
0000
0003
0000
,
1000
0000
0010
0000
0001
0000
0010
1000
0001
0000
0000
0000
0001
0000
0010
0000
,
1000
0000
0010
0001
1000
0000
0000
0000
0001
0000
0010
0000
0100
0000
1000
0000
,
0001
0100
0010
1000
0000
0001
0100
1000
,
0100
0000
0001
0000
1000
0000
0000
0000
0001
0000
1000
0001
1000
0000
0001
0000
,
1000
0100
0001
0100
1100
0000
1000
0100
,
0001
0100
1100
0000
1000
0100
1000
0010
,
0110
0100
0001
0010
0011
0000
0001
0100
,
1000
0100
0101
0000
0001
0010
0001
0100
,
1000
0100
0001
0010
0011
0000
0001
0100
,
1000
0100
0101
0000
0001
0010
0001
0100
,
0110
0010
1000
0100
0110
0000
0000
0000
,
0011
0000
0000
0000
0110
0000
0000
0000
1100
0000
0000
0000
1001
0000
0000
1000
,
0001
0100
1000
0100
0001
0010
0001
0100
,
1000
0100
0001
0010
0001
0100
0010
1000
,
0001
0010
1000
0010
0001
0100
0001
0010
,
1000
0010
0001
0100
0001
0010
1000
0001
,
0100
1000
0001
1000
0100
0010
0100
1000
,
0001
1000
0100
0010
0100
1000
0001
0100
,
0010
1000
0001
0100
0000
0010
0100
0001
,
1000
0000
0001
1000
0100
0000
0010
0001
1000
0000
0010
0100
0001
0000
1000
0001
,
1000
0000
0010
0000
1000
0000
0100
0010
0100
0000
1000
0000
0001
0000
1000
0000
,
0001
0000
0100
0010
0100
0000
0001
0000
1000
0010
0100
0000
0001
1000
0100
0000
,
0010
0000
0001
0000
1000
0000
0100
0010
0100
0000
1000
0000
0001
0000
1000
0000
,
0001
0000
0100
0010
0100
0000
0001
0000
1000
0100
0010
0000
0001
1000
0010
0000
,
1000
0000
0001
0000
1000
0000
0010
0100
0010
0000
1000
0000
0001
0000
1000
0000
,
0001
0000
0010
0100
0010
0000
0001
0000
1000
0100
0010
0000
0001
1000
0010
0000
,
0100
0001
1000
0001
0000
1000
0010
0001
,
0010
1000
0001
0010
0200
0000
1300
0000
,
0001
0000
0010
0000
1000
0000
0010
0001
1000
0000
0000
0000
0001
0000
0100
0000
,
1000
0000
0100
0001
1000
0000
0000
0000
1100
0000
0000
0000
0011
0000
0000
0000
,
0001
0000
0010
0000
1000
0000
0010
0100
1000
0000
0001
0010
0100
0000
1000
0001
,
0100
0000
0010
1000
0001
0000
0100
0010
0100
0010
0100
0010
0100
0000
0001
0000
,
1000
0000
0010
0000
0001
0000
0010
0100
0010
0000
0000
0000
0100
0000
1000
0000
,
0100
0000
0001
1000
0001
0000
0000
0000
0010
0000
0100
0000
1000
0000
0001
0000
,
0100
0010
1000
0100
0010
0001
1000
0010
,
0001
1000
0100
0001
1000
0000
1100
0000
,
0022
0000
0000
0000
,
0033
0000
0000
0000
;
