#TITLE:SEDUCTION(Vocal Remix);
#SUBTITLE:;
#ARTIST:NC feat. NRG Factory;
#TITLETRANSLIT:;
#SUBTITLETRANSLIT:;
#ARTISTTRANSLIT:;
#GENRE:;
#CREDIT:;
#MUSIC:SEDUCTION(Vocal Remix).mp3;
#BANNER:SEDUCTION(Vocal Remix).png;
#BACKGROUND:SEDUCTION(Vocal Remix)-bg.png;
#CDTITLE:;
#SAMPLESTART:51.799;
#SAMPLELENGTH:15.000;
#SELECTABLE:YES;
#OFFSET:-0.051;
#BPMS:0.000=190.000;
#STOPS:;
#BGCHANGES:;
#FGCHANGES:;

//--------------- dance-single - HellKiteChaos ----------------
#NOTES:
     dance-single:
     HellKiteChaos:
     Hard:
     15:
     0,0,0,0,0:
0000
0000
0000
0000
,
0000
0000
0000
0000
,
0000
0000
0000
0000
,
0000
0000
0000
0000
,
0000
0000
0000
0000
,
0001
0010
0100
1000
0000
1000
0000
1000
,
0000
1000
0000
1000
0010
0100
0001
1000
,
0100
0010
0001
0100
0000
0100
0000
0100
,
0000
0100
0000
0100
0010
0100
0010
1000
,
0001
0010
0100
1000
0000
0100
0000
1000
,
0000
0100
0000
0010
0001
1000
0010
0001
,
0010
1000
0001
0100
0000
0001
0000
0100
,
0000
0001
0000
0100
1000
0100
0001
0010
,
0001
0100
0010
1000
0000
0100
0000
0010
,
0000
0100
0000
0010
0001
0010
0100
1000
,
0001
0100
0010
0100
0001
1000
0100
0010
,
0100
1000
0001
0100
0010
1000
0100
0010
,
2001
0001
3002
1003
,
0210
0010
0320
0130
,
1002
1000
2003
3001
,
0210
0010
0320
0130
,
0000
0010
1000
0010
0000
0100
0001
0100
,
0000
0001
1000
0001
0000
1000
0100
1000
,
0010
0010
0100
0100
0010
0010
0100
0100
,
0001
0000
1000
0001
1000
0000
0001
0000
0100
0010
0100
0000
1001
0000
0000
0000
,
1000
0100
0010
0001
1000
0010
0100
0001
,
1000
0100
0010
0001
1000
0010
1000
0100
,
1000
0010
0100
0001
0010
0100
1000
0001
,
0100
0010
1000
0100
0010
0001
1000
0001
,
1001
0001
1000
0010
0100
0010
1000
0100
,
0010
0100
1000
0010
0100
0001
1000
0010
,
0100
0001
0010
0100
0010
0001
0100
0010
,
0100
0001
0010
0100
1000
0001
1001
0000
,
0001
0000
0100
0000
0001
0000
0100
0000
0010
0000
1000
0010
1000
0000
0010
0100
,
0010
0000
1000
0010
1000
0000
0001
0000
0010
0000
0100
0000
1000
0000
0001
0000
,
0100
0000
0001
0000
1000
0000
0100
0000
0010
0000
0001
0010
0001
0000
0010
0100
,
0010
0000
0001
0010
0001
0000
1000
0000
0001
0000
0010
0000
0100
0000
1000
0000
,
0001
0000
0100
0000
0010
0000
1000
0000
0001
0000
0100
0001
0100
0000
0001
1000
,
0001
0000
0100
0001
0100
0000
0010
0000
0100
0000
0010
0000
1000
0000
0001
0000
,
1001
1000
0100
0010
1001
0001
0100
0010
,
1000
0001
1000
0001
0100
0010
1000
0001
1000
0000
0001
0000
1001
0000
0000
0000
,
1000
0000
0100
0000
0010
0000
0001
0000
1000
0000
0001
1000
0100
0000
0010
0001
,
1000
0000
0001
1000
0100
0000
0010
0000
0010
0000
0001
0000
1000
0000
0100
0000
,
0000
0000
1000
0000
0100
0000
1000
0000
0001
0000
0100
0001
1000
0000
0010
1000
,
0001
0000
0100
0001
1000
0000
0010
0000
0010
0000
0100
0000
0001
0000
1000
0000
,
0000
0000
0100
0000
0010
0000
0001
0000
1000
0000
0100
0010
0001
0000
0010
0100
,
1000
0000
0100
0010
0001
0000
1000
0000
1000
0000
0010
0000
0100
0000
0001
0000
,
0000
0000
0100
0000
0010
0000
1000
0000
0010
0000
0100
0001
1000
0000
0100
1000
,
0001
0000
0100
0010
1000
0000
0001
1000
0001
1000
0002
0000
1000
0000
1003
0000
,
0001
0000
0100
0000
0010
0000
1000
0000
0010
0000
1000
0010
1000
0000
0001
0100
,
0001
0000
1000
0010
1000
0000
0001
0100
0010
0000
1000
0000
0001
0000
0100
0000
,
0010
0000
1000
0000
0100
0000
0010
0000
0001
0000
0010
0001
0010
0000
0100
1000
,
0100
0000
0010
0001
0010
0000
0100
1000
0001
0000
0100
0000
0010
0000
1000
0000
,
0100
0000
0010
0000
0001
0000
0100
0000
0010
0000
1000
0010
1000
0000
0001
0100
,
0001
0000
1000
0100
1000
0000
0001
0010
0100
0000
1000
0000
0001
0000
0100
0000
,
0100
0010
1000
0000
0010
0100
0001
1000
,
0000
0100
0000
0010
0000
0001
0000
1000
,
0100
1000
0100
0000
1000
0000
0001
0000
0100
0001
0100
0000
0001
0000
1000
0000
,
0100
0010
0100
0000
1000
0000
0001
0000
0100
0010
0100
0000
0001
0000
1000
0000
,
0100
0010
0100
0000
1000
0000
0001
0000
0100
0001
0100
0000
0001
0000
1000
0000
,
0100
1000
0100
0000
1000
0000
0001
0000
1000
0010
1000
0000
0001
0000
1000
0000
,
0001
0001
0010
0010
0100
0100
1000
1000
,
0001
0001
0100
0100
0010
0010
1000
1000
,
0001
1000
0001
0000
0100
0010
1000
0000
0001
1000
0001
0000
0010
0100
1000
0000
,
0001
0010
0001
0000
1000
0100
1000
0000
0001
0100
0001
0000
1000
0010
1000
0000
,
0010
0000
1000
0000
0100
0010
0100
0000
1000
0000
0001
0000
0100
0001
0100
0000
,
0001
0000
1000
0000
0010
1000
0010
0000
1000
0000
0001
0000
0010
0001
0010
0000
,
0001
0000
1000
0000
0100
0010
0100
0000
1000
0000
0001
0000
0100
0001
0100
0000
,
0001
0000
1000
0000
0100
1000
0100
0000
1000
0000
0001
0000
0100
0010
0100
0000
,
0001
0100
0010
1000
0001
0010
0100
1000
,
0001
1000
0001
0100
0010
1000
0100
0010
,
0001
0010
0001
0000
1000
0100
1000
0000
0001
0100
0001
0000
1000
0010
1000
0000
,
0001
1000
0001
1000
0001
1000
0001
1000
0001
1000
0001
1000
0001
1000
0001
1000
,
0002
0000
0000
0000
,
0003
0000
0000
0000
;

//--------------- dance-single - HellKiteChaos ----------------
#NOTES:
     dance-single:
     HellKiteChaos:
     Challenge:
     18:
     0,0,0,0,0:
0000
0000
0000
0000
,
0000
0000
0000
0000
,
0000
0000
0000
0000
,
0000
0000
0000
0000
,
0000
0000
0000
0000
,
0001
0010
1000
0020
0000
0001
0000
0100
,
0000
1000
0000
0130
0010
0001
1000
0001
,
0100
0010
0001
0020
0000
1000
0000
0001
,
0000
0100
0000
1030
0100
0010
0001
0100
,
0101
0001
1000
0000
1010
0010
1000
1100
,
0000
0110
0000
0011
0001
0100
1000
0100
,
0001
0100
0010
1010
0000
0101
0000
1100
,
0000
1010
0000
0101
0001
0010
0100
1000
,
1100
0100
0020
0100
0000
1000
0000
0001
,
0000
0100
0000
0031
0010
0100
1000
0100
,
0000
0010
0001
1000
0000
0010
0100
0001
,
0000
0010
0100
1000
0000
0010
0100
0001
,
1000
0100
1000
0100
1000
0100
1000
0100
,
0010
0001
0010
0001
0010
0001
0010
0001
,
1000
0010
1000
0010
1000
0010
1000
0010
,
0100
0001
0100
0001
0100
0001
0100
0001
,
1000
0001
1000
0001
1000
0001
1000
0001
1000
0100
1000
0100
1000
0100
1000
0100
,
0010
0001
0010
0001
0010
0001
0010
0001
0100
0001
0100
0001
0100
0001
0100
0001
,
1000
0010
0100
0001
1000
0010
1000
0001
1000
0001
0010
0100
0010
0001
1000
0100
,
0010
0001
0100
0100
0010
0100
1001
0000
,
0011
0000
0001
0000
1000
0000
1100
0000
0100
0000
1000
0010
1000
0000
0100
1000
,
0100
0000
1000
0010
1000
0000
0100
0000
0010
0000
0001
0000
0100
0000
0010
0000
,
1010
0000
1000
0000
0001
0000
0011
0000
0010
0000
0100
0010
0100
0000
0010
0001
,
0010
0000
0100
0010
0100
0000
0010
0100
1000
0100
1000
0010
0100
0001
1000
0010
,
0100
0000
0010
0000
0100
0000
0101
0000
0001
0000
1000
0010
1000
0000
0010
0100
,
0010
0000
1000
0010
0100
0000
0001
0000
0010
0000
0100
0000
1000
0000
0010
0000
,
1010
0000
1000
0000
0001
0000
0101
0000
0001
0000
0100
1000
0100
0000
0001
0100
,
0001
0000
0100
1000
0100
0000
0001
0000
1000
0000
0100
0000
1100
0000
0000
0000
,
1010
0000
1000
0000
0001
0000
0100
0001
1000
0000
0100
0000
1100
0000
0001
0010
,
0100
0000
1000
0000
0101
0000
0001
0000
1000
0010
1000
0000
0001
0010
0100
0000
,
1000
0000
0001
0000
0101
0000
0100
0001
0100
0000
0010
0000
0101
0000
1000
0001
,
0010
0000
0100
0000
1001
0000
0001
0010
0001
1000
0001
0010
0001
1000
0001
0000
,
1000
0000
0001
0000
0101
0000
0001
0100
0010
0000
1000
0000
0101
0000
0001
1000
,
0100
0000
0010
0000
1100
0000
0010
0001
1000
0000
0001
0000
0100
0000
0010
0000
,
1000
0010
1000
0001
1000
0010
0100
0001
1000
0001
1000
0001
0100
0001
1000
0100
,
0010
0001
0010
0001
1000
0001
0010
0100
1000
0000
0001
0000
1001
0000
0000
0000
,
2100
0000
0100
0000
3002
0000
0103
0001
0200
0000
0310
1000
0020
0000
0130
0001
,
2000
0000
3001
1000
0002
0000
0013
0100
1000
0100
1000
0100
1000
0010
1000
0010
,
0100
0000
0001
0000
0101
0000
0100
0000
0002
0000
1003
0010
2000
0000
3001
0010
,
0200
0000
1300
0001
0200
0000
0310
1000
0010
1000
0010
0100
0001
0100
0001
1000
,
0002
0000
1000
0000
2003
0000
3010
1000
0020
0000
0130
0001
0200
0000
0310
1000
,
0002
0000
1003
0001
2000
0000
3100
0010
0001
0010
0001
0010
0001
0100
0001
0100
,
0010
0000
1000
0000
1010
0000
0010
0000
2000
0000
3001
0100
0002
0000
1003
0100
,
0020
0000
0031
1000
0020
0000
0130
0001
0100
0001
0100
0010
1000
0010
1000
0001
,
0020
0000
0100
0000
0032
0000
0203
0000
0310
0000
1000
0010
0200
0000
0301
1000
,
0020
0000
0130
0001
2000
0000
3010
1000
0001
1000
0001
1000
0100
1000
0100
0010
,
0002
0000
0100
0000
2003
0000
3002
0000
0013
0000
0100
1000
0200
0000
0310
0001
,
2000
0000
3010
1000
0020
0000
0130
0001
1000
0001
1000
0001
1000
0100
0010
0001
,
2000
0000
0010
0000
3002
0000
2003
0000
3001
0000
0100
0001
2000
0000
3010
1000
,
0200
0000
0310
0001
2000
0000
3100
1000
0010
0100
0010
0100
0001
0100
0001
1000
,
0100
0000
0010
0000
0100
0000
0010
0100
1000
0000
0010
0000
0100
0000
0010
0100
,
0001
0000
0010
0100
0001
0000
0100
1000
0010
1000
0010
1000
0001
0010
0001
0010
,
0002
0100
1000
0103
2100
0010
0001
3010
,
0210
0010
0001
0310
0120
1000
0100
1030
,
1002
0010
1000
0103
2010
0010
0001
3100
,
0120
0001
0100
0031
0201
0010
0001
0310
,
1000
0000
0010
0000
1000
0010
0100
0000
0001
0000
1000
0000
0001
0100
0010
0000
,
1000
0000
0001
0000
0010
0100
1000
0000
0001
0000
1000
0000
0001
0100
0010
0000
,
1000
0001
0100
0010
1000
0100
0010
0001
1000
0010
0100
0001
1000
0010
0100
0001
,
1000
0001
0010
0100
1000
0001
0010
0100
0010
0001
1000
0100
0010
0100
1000
0001
,
0020
0100
0001
0130
0012
0100
1000
0103
,
2100
0010
0100
3010
1002
0100
0010
1003
,
0012
0100
0010
1003
2100
0100
0010
3001
,
0102
0010
1000
0013
0201
0010
1000
0310
,
0001
0010
0100
1000
0001
0010
0001
1000
0010
0100
0001
1000
0010
1000
0001
1000
,
0100
0010
0001
1000
0001
0010
0100
1000
0010
0100
0001
1000
0010
0100
0001
1000
,
0100
0010
0001
1000
0010
1000
0001
0100
0010
1000
0010
1000
0001
0100
0010
1000
,
0002
0000
0000
0000
,
2000
0000
0000
0000
,
3003
0000
0000
0000
;
