#TITLE:RED ZONE;
#SUBTITLE:;
#ARTIST:Tatsh&NAOKI;
#TITLETRANSLIT:;
#SUBTITLETRANSLIT:;
#ARTISTTRANSLIT:;
#GENRE:;
#CREDIT:;
#MUSIC:RED ZONE.mp3;
#BANNER:RED ZONE.png;
#BACKGROUND:RED ZONE-bg.png;
#CDTITLE:;
#SAMPLESTART:24.750;
#SAMPLELENGTH:10.000;
#SELECTABLE:YES;
#OFFSET:-0.052;
#BPMS:0.000=165.000;
#STOPS:;
#DISPLAYBPM:165.000;
#BGCHANGES:;
#FGCHANGES:;

//--------------- dance-single - HellKiteChaos ----------------
#NOTES:
     dance-single:
     HellKiteChaos:
     Challenge:
     17:
     0,0,0,0,0:
0000
0000
0000
0000
,
1000
0000
0001
0010
0000
0001
0100
0000
1000
0010
0000
1000
0100
0000
1000
0000
,
0001
0010
0100
1000
0010
0100
0001
1000
0100
0010
0001
0100
0010
1000
0000
0001
,
0100
0000
0001
1000
0000
0001
0010
0000
0100
1000
0000
0001
0100
0000
0010
0000
,
1000
0000
0000
0010
0000
0000
0100
0000
0000
0010
0000
0000
1000
0000
0000
0010
0000
0000
0100
0000
0000
0010
0000
0000
1000
0000
0000
0000
0000
0000
0001
0000
0000
0000
0000
0000
1000
0000
0000
0000
0001
0000
0000
0000
1000
0000
0000
0000
,
0001
0000
1000
0100
0000
1000
0001
0000
1000
0010
0000
0100
0001
0000
1000
0000
,
0001
0010
0100
1000
0100
1000
0010
1000
0010
0100
0001
1000
0100
0010
0001
1000
,
0100
0000
0100
0010
0000
0010
0001
0000
0001
1000
0000
1000
0001
0000
0100
0000
,
0000
0010
0000
0000
0010
0000
0000
1000
0000
0010
1000
0000
0001
1000
0100
0010
,
0001
1000
0010
1000
0001
0010
0100
1000
,
0001
0100
0001
1000
0100
1000
0001
0100
,
0010
1000
0001
0010
0100
1000
0001
0100
0010
1000
0001
0000
1000
0000
0001
0000
,
1000
0100
0010
0001
1000
0100
0010
0001
0100
0010
1000
0001
0010
0100
1000
0001
,
0010
0100
1000
0010
0100
0001
1000
0010
,
0100
0001
0010
0100
1000
0010
0100
0001
,
1000
0100
0010
0001
1000
0010
0100
0001
1000
0100
0010
0001
1000
0000
0001
0000
,
2000
0000
0000
0000
3001
0000
1000
0000
0001
1000
0001
1000
0001
1000
0001
1000
,
0001
0000
1100
0000
0001
0000
1100
0000
0010
0001
0000
1000
0000
0010
0100
0010
,
1000
0000
0101
0000
1000
0000
0101
0000
1000
0010
0000
0100
0000
0010
0100
0001
,
1000
0000
0011
0000
1000
0000
0011
0000
1000
0100
0000
0010
0000
0000
0001
0000
,
1000
0100
1000
0001
0100
0000
0001
0000
1000
0010
1000
0000
0001
0100
0001
0100
,
0001
0000
1010
0000
0001
0000
1010
0000
0001
0010
0000
0100
0000
1000
0001
1000
,
0010
0000
0101
0000
0010
0000
0101
0000
0010
1000
0000
0010
0000
0100
0010
0100
,
0001
0000
1100
0000
0001
0000
1100
0000
0010
0001
0000
1000
0000
0000
0010
0000
,
0100
0001
1000
0001
0010
0000
0100
0000
1000
0100
1000
0000
0001
0010
0001
0010
,
0001
0000
1000
0000
0100
0000
0000
0010
0000
0001
0000
0000
1000
0000
0010
0000
,
0100
0000
0001
0000
1000
0100
0000
1000
0010
0000
1000
0200
0000
0000
0310
0000
,
0001
0000
0100
0000
0010
0000
0000
1000
0000
0010
0000
0000
0100
0000
0001
0000
,
1000
0010
0100
0001
1000
0010
0100
0001
1000
0100
0010
0001
1000
0000
0001
0000
,
1000
0000
0100
0000
1100
0000
0000
0010
0000
0011
0000
0000
0001
0000
0100
0000
,
0010
0000
1000
0100
0000
0010
0001
0000
1000
0010
0000
0100
0001
0000
0000
2000
,
0000
0000
0000
0000
,
0000
0000
0000
0000
0000
0000
0000
0000
3001
0000
0000
0010
0000
0000
0100
0000
,
1100
0000
1000
0000
0001
0000
0100
0010
,
0000
1000
0001
0010
0100
1000
0001
0100
,
0010
0000
1000
0000
1010
0000
1000
0001
,
0000
0010
0001
0100
0001
0000
1001
0000
,
1000
0000
0100
0000
0010
0000
0100
1000
,
0000
0001
0010
0100
0010
0001
0100
0010
,
1000
0000
1010
0000
0101
0000
0001
0010
,
0000
0001
0100
0010
1000
0001
1000
0001
,
1000
0000
0001
0000
0010
0000
0000
0100
0000
1000
0000
0000
0001
0000
0100
0000
,
0010
0000
1000
0000
0001
0010
0000
0001
0100
0000
0001
0020
0000
0000
0130
0000
,
1000
0000
0010
0000
0100
0000
0000
0001
0000
0100
0000
0000
0010
0000
1000
0000
,
0001
0100
0010
1000
0001
0100
0010
1000
0001
0010
0100
1000
0001
0000
1000
0000
,
0001
0000
0010
0000
0011
0000
0000
0100
0000
1100
0000
0000
1000
0000
0010
0000
,
0100
0000
0001
0010
0000
0100
1000
0000
0001
0100
0000
0010
1000
0000
0000
0002
,
0000
0000
0000
0000
,
0000
0000
0000
0000
0000
0000
0000
0000
1003
0000
0000
0001
0000
0000
1000
0000
,
0001
0000
0000
0000
,
1000
0100
1000
0100
1000
0010
1000
0010
1000
0100
1000
0100
1000
0001
1000
0001
,
1000
0100
0010
0001
1000
0100
0010
0001
1000
0010
0100
0001
1000
0000
0001
0000
,
1000
0000
0010
0100
0001
0000
1000
0010
0100
0000
0010
0100
0001
0000
1000
0010
,
0100
0000
0001
0010
0100
0000
1000
0001
0100
0000
0010
1000
0001
1000
0001
0100
,
0010
1000
0010
1000
0010
1000
0100
0000
0010
0001
0010
0001
0010
0001
0100
0000
,
0010
1000
0001
1000
0100
0010
0001
1000
0100
1000
0001
0010
0100
1000
0001
0000
,
1000
0000
0010
0100
0010
0100
0001
0000
1000
0100
1000
0100
0010
0000
0001
1000
,
0100
0000
0010
0001
0000
1000
0010
0000
0100
0001
0100
0000
0010
1000
0010
1000
,
0010
0000
0000
1010
0000
0000
1100
0000
0000
0000
0011
0000
1001
0000
0011
0000
,
1001
0000
0000
1100
0000
0000
1010
0000
0000
0000
0101
0000
0101
0000
1100
0000
,
2002
0000
3003
0000
;
