#TITLE:PETIT LOVE;
#SUBTITLE:;
#ARTIST:SMILE.dk;
#TITLETRANSLIT:;
#SUBTITLETRANSLIT:;
#ARTISTTRANSLIT:;
#GENRE:;
#CREDIT:;
#MUSIC:PETIT LOVE.mp3;
#BANNER:PETIT LOVE.png;
#BACKGROUND:PETIT LOVE-bg.png;
#CDTITLE:;
#SAMPLESTART:0.000;
#SAMPLELENGTH:0.000;
#SELECTABLE:YES;
#OFFSET:-0.040;
#BPMS:0.000=155.000;
#STOPS:;
#DISPLAYBPM:155.000;
#BGCHANGES:;
#FGCHANGES:;

//--------------- dance-single - HellKiteChaos ----------------
#NOTES:
     dance-single:
     HellKiteChaos:
     Challenge:
     12:
     0,0,0,0,0:
0000
0000
0000
0000
,
0000
0000
0000
0000
,
1000
0010
0010
1000
0010
0010
0100
0001
,
1000
0100
0010
0100
1000
0001
0001
0001
,
2000
0010
0000
3010
0010
1000
1000
0002
,
0000
0010
0000
0013
0010
0100
0100
2000
,
0000
0100
0000
3100
0100
0010
0010
0002
,
0000
1000
0000
0013
0100
0010
0100
2000
,
0000
0010
0000
3001
0001
1000
1000
0002
,
0000
0010
0000
1003
1000
0001
0001
0200
,
0000
0010
0000
0310
0010
0100
0100
0010
,
0000
0110
0000
1001
1000
0001
1000
0000
,
0001
0000
0000
0010
0000
0000
0001
0000
1000
0000
0000
0010
0000
0000
1000
0000
,
0001
0000
0000
0100
0000
0000
0001
0000
1000
0000
0000
0100
0000
0000
1000
0000
,
0001
0000
0000
0010
0000
0000
0100
0000
1000
0000
0000
0010
0000
0000
0100
0000
,
0001
0000
0000
1000
0000
0000
0100
0000
0010
0000
0000
0001
0000
0000
1000
0000
,
0001
0000
0000
0100
0000
0000
0010
0000
0010
0000
0000
1000
0000
0000
0001
0000
,
0001
0000
0000
0010
0000
0000
0100
0000
0100
0000
0000
1000
0000
0000
0001
0000
,
0001
0000
0000
0100
0000
0000
0010
0000
0010
0000
0000
1000
0000
0000
1000
0000
,
0001
0100
0010
1000
,
0200
0010
0010
0310
0002
1000
0000
1003
,
0001
1000
0001
1000
1001
0000
0000
1010
,
0000
0010
1000
0010
0100
0000
0010
1000
,
0010
0100
0010
1000
0010
1010
0000
0101
,
0000
0011
0000
0110
0000
1100
0000
1001
,
0000
0000
1000
0000
0100
1000
0001
0000
,
1000
0010
0001
0010
1000
0000
1010
1000
,
0001
0010
1000
0010
0001
0010
0000
0011
,
0000
0100
0000
1100
0000
0100
0000
1000
,
0001
1000
0001
1000
0001
0000
0000
0000
0100
0010
0100
0010
0100
0000
0000
0000
,
0001
0100
0010
1000
0001
0000
1000
0100
,
0010
0001
1000
0100
0010
0001
0000
0011
,
0000
1100
0000
0011
0000
0101
0000
1010
,
0000
1000
0010
1000
0010
0100
0001
0000
,
1000
0001
1000
0001
0100
0001
0010
0000
,
0001
1000
0001
1000
0100
1000
0010
0000
,
0101
0000
0000
1000
1100
0000
0000
0001
,
0100
0001
0100
0001
0101
0000
0000
1000
,
1010
0000
0000
0001
0011
0000
0000
0001
,
1000
0100
0010
0001
1001
0000
0000
0000
,
1000
0100
0010
0100
1000
0001
1000
0100
,
0010
0000
0000
0000
0001
0000
0000
0001
0100
0000
0000
0100
0010
0000
0000
0000
,
0010
1000
0001
1000
0010
0100
0001
0010
,
0001
0000
0000
0000
0100
0000
0000
0100
0010
0000
0000
0010
1000
0000
0000
0000
,
0010
1000
0100
0001
0100
1000
0010
0000
,
0010
0100
0010
0100
0001
1000
0001
0000
,
1000
0100
0010
0001
1000
0010
0100
0001
,
1000
0100
0010
0001
,
1000
0010
0100
0010
1000
0001
1000
0100
,
0010
0000
0000
0000
0001
0000
0000
0001
1000
0000
0000
1000
0010
0000
0000
0000
,
0010
0100
0001
0010
0001
0010
0100
0010
,
0001
0000
0000
0000
1000
0000
0000
0010
0100
0000
0000
0100
0001
0000
0000
0000
,
0100
0001
0100
0001
0100
0020
0000
2030
,
0000
3002
0000
0203
0000
0310
0000
0000
,
0010
0100
0010
0100
0001
0100
0001
2000
,
0000
3200
0000
0320
0000
0032
0000
0003
,
1000
0100
0001
0100
1000
0100
0001
0200
,
0000
2300
0000
3002
0000
0013
0000
0100
,
2002
3003
0000
0100
2002
3003
0000
0100
,
0010
0100
0010
0100
2002
3003
0000
0010
,
2002
3003
0000
0010
2002
3003
0000
0010
,
0100
0010
0100
0010
1001
0000
2002
0000
,
0000
3003
0000
0000
;
