#TITLE:PARANOiA KCET;
#SUBTITLE:(clean mix);
#ARTIST:2MB;
#TITLETRANSLIT:;
#SUBTITLETRANSLIT:;
#ARTISTTRANSLIT:;
#GENRE:Dance Dance Revolution 2nd Link Version,Dancing Stage Euromix -Internet Ranking-;
#CREDIT:;
#MUSIC:PARANOiA KCET (clean mix).mp3;
#BANNER:PARANOiA KCET (clean mix).png;
#BACKGROUND:PARANOiA KCET (clean mix)-bg.png;
#CDTITLE:;
#SAMPLESTART:61.460;
#SAMPLELENGTH:12.000;
#SELECTABLE:YES;
#OFFSET:-0.143;
#BPMS:0.000=180.000
,71.000=183.000
,72.000=180.000
;
#STOPS:;
#DISPLAYBPM:180.000;
#BGCHANGES:;
#FGCHANGES:;

//--------------- dance-single - HellKiteChaos ----------------
#NOTES:
     dance-single:
     HellKiteChaos:
     Challenge:
     14:
     0,0,0,0,0:
0000
0000
0000
0000
,
0000
0000
0000
0000
,
1000
0000
0001
0000
0100
0000
0001
0000
0010
0000
0000
0100
1000
0000
1000
0000
,
0001
0000
0101
0000
1000
0000
1100
0100
,
1000
0000
0001
0000
1000
0000
0010
0000
0100
0000
0000
0010
0100
0000
0001
0000
,
0001
0000
0101
0000
0001
0000
1001
1000
,
0001
0000
0100
0000
0001
0000
0010
0000
0001
0000
0000
1000
0001
0000
1000
0000
,
1000
0000
1100
0000
0001
0000
0011
0001
,
1000
0000
0010
0000
1000
0000
0001
0000
0100
0000
0000
0010
1000
0000
0001
0000
,
0001
0000
0100
0001
1000
0000
1001
0001
,
1000
0000
0100
0000
1000
0000
0001
0000
0010
0000
0000
0100
1000
0000
0001
0000
,
0001
0000
0100
0001
0100
0001
1000
0000
,
0100
0000
1000
0000
0001
0000
0010
0000
0100
0000
1000
0001
1000
0000
0001
0000
,
0010
0000
0100
0010
0100
1000
0001
0000
,
1001
0000
0001
0000
0100
0000
0001
0000
0010
0000
0100
1000
0001
0000
0100
0000
,
0001
1000
0100
0010
0001
1000
0001
0000
,
1000
0000
0001
0000
0100
0000
1000
0000
0100
0000
0001
1000
0001
0000
0010
0000
,
1000
0010
0001
0100
0010
1000
1001
0000
,
2100
0000
0000
0000
3002
0000
0000
0000
0013
0000
0000
0010
0100
0000
0100
0000
,
0100
0010
0100
2000
0001
3001
2000
0000
,
3010
0000
0000
0000
0102
0000
0000
0000
1003
0000
0000
0100
0010
0000
0010
0000
,
0001
0010
0001
2000
0100
3100
2000
0000
,
3001
0000
0000
0000
0021
0000
0000
0000
0130
0000
0000
0010
0100
0000
1000
0000
,
1000
0100
0010
0002
1000
1003
0002
0000
,
0103
0000
0000
0000
0120
0000
0000
0000
1030
0000
0000
0001
1000
0000
1000
0000
,
1001
0000
0100
0010
0100
0010
1001
0000
,
1000
0100
1000
0000
0001
0100
0001
0000
1000
0100
1000
0000
0000
0000
0000
0000
,
0001
0100
0001
0000
0000
0000
0000
0000
1000
0010
1000
0000
0010
1000
0010
0000
,
0000
0000
0000
0000
0000
0000
0000
0000
0100
0001
0100
0000
0000
0000
0000
0000
,
0001
1000
0001
0000
1000
0001
1000
0000
0000
0000
0000
0000
0000
0000
0000
0000
,
1000
0000
0001
0200
0301
0200
0301
0200
,
0300
0001
0020
0031
0020
0031
0020
0030
,
0000
0100
0000
0100
0000
1000
0001
1000
,
0010
0100
0010
0000
0100
0000
0001
0000
1000
0000
0001
0000
1001
0000
0000
0000
,
0000
0002
0000
2003
3010
2000
3010
2000
,
3010
0000
0200
0301
0200
0301
0200
0300
,
0101
1001
1100
0110
,
0001
0000
1000
0001
1000
0001
1000
0000
0100
0000
0010
0000
0020
0000
0000
0000
,
0031
0010
0001
2000
3010
2000
3100
2000
,
3010
2000
3100
0010
0100
0010
0100
0010
,
0001
1000
0100
0100
,
0010
0100
0010
0100
0010
0000
0001
0000
1000
0000
0100
0000
1100
0000
0000
0000
,
0000
1100
0000
0011
0000
0110
0000
1100
,
0000
1001
0000
0101
0000
0110
0000
1001
,
0001
0100
0001
0010
0001
0100
0001
1000
,
0100
0000
0100
0000
0100
0000
0010
0000
0100
0010
0100
0000
0110
0000
0000
0000
,
1002
0000
0103
0001
1000
0100
0010
0100
,
2000
0000
3001
0010
0100
0010
0001
1000
,
0200
0000
0310
0001
1000
0001
0010
0100
,
2000
0000
3001
1000
0100
0010
0100
1000
,
0002
0000
0103
0010
1000
0001
1000
0010
,
0200
0001
0301
1000
0010
0100
0001
1000
,
0020
0100
0130
0010
1000
0001
0100
0010
,
2000
0001
3001
1000
0010
0100
0001
1000
,
0010
0000
1000
0000
0100
0010
0200
0000
0010
0000
0310
0000
0001
0000
1000
0000
,
0001
0000
0100
0000
0010
1000
0020
0000
0100
0000
0130
0000
0010
0000
0100
0000
,
0001
0000
1000
0000
0001
0010
0002
0000
1000
0000
1003
0000
0001
0000
0010
0000
,
0100
0000
1000
0000
0010
1000
0020
0000
0100
0000
0130
0000
0010
0000
0100
0000
,
0001
0000
1000
0000
0001
1000
0002
0000
0100
0000
1003
0000
0001
0000
0010
0000
,
0100
0000
1000
0000
0010
0100
0020
0000
0100
0000
1030
0000
0001
0000
0100
0000
,
0010
0000
1000
0000
0001
0100
0002
0000
0010
0000
1003
0000
0001
0000
1000
0000
,
0100
0000
0010
0000
0001
0010
0200
0000
0010
0000
1300
0000
1001
0000
0000
0000
,
0101
0001
0100
0010
0200
0010
0320
0000
,
1030
0100
1000
1002
0000
0103
0010
1000
,
0001
1000
0001
0000
0100
0000
0001
0000
0010
0000
0100
0000
0010
0000
0100
0000
,
1000
1000
0001
1000
1000
1000
0002
0000
,
1003
1000
0002
0100
0003
0100
0010
1000
,
1000
0001
0100
0120
0000
1030
0200
0000
,
0310
0001
0010
0001
0100
0001
1000
0100
,
0010
0001
0100
0010
1000
0100
2002
0000
,
0000
0000
0000
0000
,
3003
0000
0000
0000
;
