#TITLE:OPERATOR;
#SUBTITLE:;
#ARTIST:PAPAYA;
#TITLETRANSLIT:;
#SUBTITLETRANSLIT:;
#ARTISTTRANSLIT:;
#GENRE:;
#CREDIT:;
#MUSIC:OPERATOR.mp3;
#BANNER:OPERATOR.png;
#BACKGROUND:OPERATOR-bg.png;
#CDTITLE:;
#SAMPLESTART:0.000;
#SAMPLELENGTH:0.000;
#SELECTABLE:YES;
#OFFSET:-0.136;
#BPMS:0.000=134.975;
#STOPS:;
#DISPLAYBPM:135.000;
#BGCHANGES:;
#FGCHANGES:;

//--------------- dance-single - HellKiteChaos ----------------
#NOTES:
     dance-single:
     HellKiteChaos:
     Challenge:
     11:
     0,0,0,0,0:
0000
0000
0000
0000
,
0000
0000
0000
0000
,
0000
0000
0000
0000
,
0000
0000
0000
0000
,
1000
0000
0000
0000
0010
0000
0000
0100
0000
0000
0100
0000
0000
0000
0010
0000
,
0100
0000
0000
0000
0001
0000
0000
1000
0000
0000
1000
0000
0100
0000
0010
0000
,
0001
0000
0000
0000
0100
0000
0000
0010
0000
0000
0010
0000
0100
0000
0010
0000
,
1000
0001
0101
1010
,
1000
0000
0000
0010
0000
0000
1000
0000
0000
0001
0000
0000
0010
0000
0100
0000
,
1000
0000
0000
0100
0000
0000
0001
0000
0000
0100
0000
0000
0010
0000
0001
0000
,
1000
0000
0000
0010
0000
0000
0001
0000
0000
0010
0000
0000
0100
0000
0001
0000
,
1000
0100
0010
0001
0100
0000
0110
0000
,
0010
0000
0000
1000
0000
0000
0010
0000
0000
0100
0000
0000
0001
0000
1000
0000
,
0100
0000
0000
0001
0000
0000
0100
0000
0000
1000
0000
0000
0001
0000
0100
0000
,
0010
0000
0000
1000
0000
0000
0001
0000
0000
1000
0000
0000
0010
0000
0100
0000
,
0001
0010
0100
1000
0001
0000
1001
0000
,
2000
0000
3100
1000
0001
0100
0001
0100
,
0002
0000
0103
0010
1000
0001
2000
0000
,
3020
0000
1030
0010
0100
0010
1000
0001
,
0020
0230
1300
1001
,
0001
0100
0001
0010
0200
0000
1300
0000
,
1000
0001
1000
0100
0020
0000
0031
0001
,
0000
1000
0100
0000
1000
0010
0100
0000
,
0001
1000
0100
0010
0001
0100
1001
0000
,
0001
0100
0010
0100
0001
0010
0100
0010
,
0001
0100
0010
1000
0100
0000
0101
0000
,
1000
0010
0100
0010
1000
0100
0010
0001
,
0100
0011
1010
1100
,
0010
0001
1000
0001
0100
0001
0010
0100
,
2000
3002
0103
1010
,
0100
0001
1000
0000
0001
1000
0100
0000
,
0010
0001
1000
1001
,
1000
0100
1000
0010
0100
0010
1000
0100
,
1100
0000
0101
0000
1100
0000
0101
0001
,
1000
0000
1100
1000
0001
0000
0101
0001
,
1000
0100
1000
0001
0101
0000
1100
0000
,
0011
0001
1000
0000
1010
1000
0001
0000
,
0011
0001
1000
0010
1000
0001
0011
1000
,
1010
0000
0011
0001
1000
0010
1010
0000
,
1010
0001
0010
0100
1000
0001
1001
0000
,
1000
0100
1000
0010
2000
0000
3100
2000
,
0020
3000
0130
0000
0110
0100
0010
0100
,
0001
0010
0001
0100
0001
0010
0001
0100
,
0001
0010
0001
0100
0010
1000
0100
0000
,
0010
0001
0100
0001
0020
0000
0130
0020
,
0002
0030
0103
0000
0010
0100
0010
1000
,
0001
1000
0100
0010
0100
1000
0010
0100
,
0001
0010
0100
1000
1100
0000
0101
0000
,
2002
0000
3003
0000
;
