#TITLE:More One Night;
#SUBTITLE:;
#ARTIST:チト(CV\:水瀬いのり)、ユーリ(CV\:久保ユリカ);
#TITLETRANSLIT:;
#SUBTITLETRANSLIT:;
#ARTISTTRANSLIT:Chito (CV\- Minase Inori), Yuuri (CV\- Kubo Yurika);
#GENRE:;
#CREDIT:;
#MUSIC:More One Night.ogg;
#BANNER:More One Night.png;
#BACKGROUND:More One Night-bg.png;
#CDTITLE:;
#SAMPLESTART:54.146;
#SAMPLELENGTH:15.000;
#SELECTABLE:YES;
#OFFSET:0.000;
#BPMS:0.000=123.000;
#STOPS:;
#BGCHANGES:;
#FGCHANGES:;

//--------------- dance-single - HellKiteChaos ----------------
#NOTES:
     dance-single:
     HellKiteChaos:
     Challenge:
     13:
     0,0,0,0,0:
0000
0000
0000
0000
,
0000
0000
0000
0000
,
0000
0000
0000
0000
,
0000
0000
0000
0000
,
2010
0000
0000
0000
3100
0000
0000
0000
0010
0000
0000
0001
0000
0000
0012
0000
,
0000
0100
0000
0023
,
0230
0000
0000
0000
1300
0000
0000
0000
0010
0000
0000
1000
0000
0000
1200
0000
,
0000
0010
0320
0031
,
1000
0000
0010
0000
0100
0000
0001
1000
0000
0100
0000
0020
0000
0000
0030
0000
,
0001
0000
1000
0000
0100
0000
0010
0001
0000
0100
0000
0020
0000
0000
0030
0000
,
1000
0100
0010
0100
1000
0010
0100
0010
,
0100
0100
0001
0001
1000
0000
1001
0001
,
2000
0000
3100
0010
0002
0000
0103
0010
,
1000
0001
0100
0010
1010
0000
1000
0010
,
1000
0001
0100
0001
0011
0000
0010
0100
,
1000
0010
0100
0001
1001
0000
0011
0001
,
1000
0000
1010
1000
0001
0000
0101
0001
,
1000
0100
0100
0010
0001
0000
0011
0001
,
1000
0000
1010
1000
0100
0100
0010
0010
,
0011
1001
1100
0110
0011
0002
2000
3003
,
0001
0100
0001
0100
0010
0000
1000
0010
1000
0001
0010
0000
0001
0010
0001
1000
,
0100
0010
0001
0010
0001
0100
0001
0100
0010
0000
0000
1000
0010
0100
0001
0000
,
1000
0001
0100
0001
0100
0000
0010
1000
0010
1000
0100
0000
0010
0001
1000
0001
,
0100
0001
0100
0010
0100
0000
0010
0000
0120
0000
0000
0000
2030
0000
0000
0000
,
3001
0010
0001
0010
0100
0000
1000
0001
1000
0001
0010
0000
0100
1000
0100
1000
,
0001
0000
0100
0001
0100
0010
1000
0000
1010
0000
1000
0000
0001
0000
1000
0000
,
1100
0100
0100
0100
0110
0010
0010
0010
,
0011
0001
0101
1000
1100
0000
0100
0010
,
0011
0000
0010
0000
0100
0000
1000
0000
0100
0000
0010
0001
0000
0001
1000
0000
,
0010
1000
0001
0100
0110
0000
0000
0010
,
1000
0000
0001
0000
0010
0100
1000
0000
0001
0000
1000
0000
0010
0100
0001
0000
,
1000
0000
0100
0000
0010
0000
0100
0000
0010
0000
0001
0010
0001
0100
0010
0100
,
0010
0000
1000
0000
0010
0100
0010
0000
1000
0000
0010
0000
0100
0010
0100
0000
,
0001
0000
1000
0000
0100
1000
0001
1000
0100
0000
0000
0000
0100
0000
0010
0000
,
0001
0001
1000
0001
0100
0010
1000
0010
,
0100
0001
0010
0000
0100
1000
0010
1000
0020
0000
0000
0000
0230
0000
0000
0000
,
0002
0000
0000
0000
0000
0000
0000
0000
0303
0000
0001
0100
0010
0000
0000
0000
,
1000
0010
1000
0010
0100
0000
0001
0100
0001
0100
0010
0000
1000
0001
1000
0001
,
0010
0000
0100
1000
0001
1000
0100
0000
0020
0000
0032
0000
2003
0000
3200
0000
,
0310
0001
0010
0001
1000
0000
0010
1000
0010
1000
0100
0000
0010
0100
0010
0100
,
1000
0000
0001
0010
0001
0100
0010
0000
2000
0000
3020
0000
0230
0000
0302
0000
,
1003
0001
0100
0001
1000
0000
0010
1000
0001
1000
0010
0000
0100
0001
1000
0001
,
0010
0000
0100
1000
0001
1000
0001
0000
1001
0000
0001
0000
0101
0000
0100
0000
,
0010
1000
0001
1000
0100
0000
0010
0001
1000
0001
0100
0000
0010
1000
0010
0100
,
0001
0001
0010
0010
0100
0100
1000
1000
,
0002
0000
0203
0000
2300
0000
3200
0000
0302
0000
1003
0100
0020
0000
0000
0000
,
0030
0000
0000
0000
;
