#TITLE:MY GENERATION (Fat Beat Mix);
#SUBTITLE:;
#ARTIST:CAPTAIN JACK;
#TITLETRANSLIT:;
#SUBTITLETRANSLIT:;
#ARTISTTRANSLIT:;
#GENRE:;
#CREDIT:;
#MUSIC:MY GENERATION (Fat Beat Mix).mp3;
#BANNER:MY GENERATION (Fat Beat Mix).png;
#BACKGROUND:MY GENERATION (Fat Beat Mix)-bg.png;
#CDTITLE:;
#SAMPLESTART:0.000;
#SAMPLELENGTH:0.000;
#SELECTABLE:YES;
#OFFSET:-1.609;
#BPMS:0.000=140.000;
#STOPS:;
#DISPLAYBPM:140.000;
#BGCHANGES:;
#FGCHANGES:;

//--------------- dance-single - HellKiteChaos ----------------
#NOTES:
     dance-single:
     HellKiteChaos:
     Challenge:
     12:
     0,0,0,0,0:
0000
0000
0000
0000
,
0000
0000
0000
0000
,
0000
0000
0000
0000
,
0000
0000
0000
0000
,
1000
0010
0000
1000
0010
0000
1000
0010
0000
1000
0100
0000
1000
0000
1000
0000
,
0001
0010
0000
0001
0010
0000
0001
0010
0000
0001
0100
0000
0001
0000
0001
0000
,
1000
0100
0000
1000
0100
0000
1000
0100
0000
1000
0010
0000
0100
0000
0100
0000
,
0001
0100
0000
0001
1000
0000
0001
0010
0000
0100
0010
0000
0100
0000
0010
0000
,
0001
0000
1000
0000
0100
0000
0000
1000
0000
0001
0100
0000
0100
0000
0010
0000
,
1000
0000
0001
0000
0100
0000
0000
0010
0000
0100
0001
0000
0001
0000
1000
0000
,
0001
0000
1000
0000
0100
0000
0000
0010
0000
0001
1000
0000
1000
0000
0001
0000
,
0100
0100
0010
0100
0100
0001
1001
0000
,
1001
0000
1001
0000
0100
0000
0000
0000
0001
1000
0001
0000
0100
0000
0000
0000
,
0001
1000
0100
1000
0001
1000
0100
0000
,
1000
0010
0010
0000
0100
0100
0001
0000
,
1010
0000
0000
0000
0101
0000
0000
0000
0001
1000
0001
0000
2000
0000
0000
0000
,
3001
0010
0001
0100
1000
0100
0001
0000
,
1000
0010
1000
0100
0001
0100
1000
0000
,
0001
0010
0001
0100
1000
0100
0001
0000
,
1000
0001
1000
0001
0200
0000
0300
0000
,
0010
1000
0100
0001
0100
1000
0010
0000
,
0100
0001
0010
1000
0010
0001
0100
0000
,
0010
1000
0100
0010
0001
0100
0010
0000
,
0110
1001
0220
0330
,
2002
0000
0000
3003
,
1000
0100
1000
0100
0010
0000
0011
0000
,
0001
0000
1000
0000
0001
0000
1000
0000
0001
0000
0100
0001
0000
0100
0001
0000
,
0200
0000
2300
0000
3200
0000
0301
0001
,
1000
0000
0010
0000
1000
0000
0010
0000
0100
0000
0000
0001
0000
0000
1000
0000
,
0001
0010
0001
0010
0100
0000
1100
0000
,
1000
0000
0001
0000
1000
0000
0001
0000
1000
0000
0010
1000
0000
0010
1000
0000
,
0020
0000
0032
0000
0023
0000
1030
1000
,
0001
0000
0100
0000
0001
0000
0100
0000
0010
0000
0000
1000
0001
0000
1000
0000
,
0002
0000
0023
0000
0130
1000
0100
1000
,
0020
0000
0230
0000
0301
0100
0001
0100
,
0020
0000
1030
0000
0001
1000
0001
1000
,
0100
0010
0001
1000
0100
0000
0100
0000
,
1000
0100
0010
0001
1000
0001
1000
0000
,
0001
0100
0010
1000
0001
1000
0001
0000
,
0100
0010
0100
0001
1000
0010
0100
0100
,
0001
1000
0100
1001
,
0000
1000
1000
0010
1000
1000
1100
0000
,
0000
0001
0001
0010
0001
0100
0001
0001
,
0002
0000
0203
0000
0310
1000
0010
1000
,
2000
0000
3200
0000
0310
0001
1000
0100
,
0000
0100
0100
0010
0100
1000
0001
0001
,
0001
1000
0010
0100
0010
1000
0001
1000
,
0010
0100
0010
1000
0001
1000
0010
0100
,
0001
0010
0100
1000
0001
0010
0100
1000
,
0000
0001
1000
0001
2000
0000
0002
0000
,
3003
0000
0000
0000
;
