#TITLE:Last Card;
#SUBTITLE:;
#ARTIST:kors k;
#TITLETRANSLIT:;
#SUBTITLETRANSLIT:;
#ARTISTTRANSLIT:;
#GENRE:;
#CREDIT:;
#MUSIC:Last Card.ogg;
#BANNER:Last Card.png;
#BACKGROUND:Last Card-bg.png;
#CDTITLE:;
#SAMPLESTART:93.179;
#SAMPLELENGTH:15.000;
#SELECTABLE:YES;
#OFFSET:0.000;
#BPMS:0.000=85.000
,12.000=170.000
,152.000=85.000
,184.000=170.000
;
#STOPS:87.875=1.412
,211.875=1.412
;
#BGCHANGES:;
#FGCHANGES:;

//--------------- dance-single - HellKiteChaos ----------------
#NOTES:
     dance-single:
     HellKiteChaos:
     Challenge:
     17:
     0,0,0,0,0:
0000
0000
0000
0000
,
0000
0000
0000
0000
,
0000
0000
0000
0000
,
1000
0000
0100
0000
0001
0000
0100
1000
,
0000
1000
0100
0010
0000
0001
0100
0010
,
1000
0100
0001
0100
1000
0010
0001
0010
,
1000
0010
1000
0010
0100
0001
0100
0001
2000
0000
0000
0000
0000
0000
0000
0000
,
3001
0000
0000
0000
0000
0000
1000
0100
0010
0001
1000
0100
0010
0001
1000
0100
,
0010
0001
0010
0001
0010
0001
1000
0100
1000
0100
0010
0001
1000
0000
0001
0000
,
1000
0000
0000
0000
0000
0010
1000
0001
0100
0010
1000
0001
0100
0010
1000
0001
,
0100
0001
0100
0001
0100
0001
1000
0000
0001
0000
1000
0000
0002
0000
0000
0000
,
0103
0000
0000
0000
0000
0000
0100
0001
1000
0010
0100
0001
1000
0010
0100
0001
,
1000
0100
1000
0100
1000
0100
0010
0001
0010
0001
0010
0001
1000
0000
0001
0000
,
0100
0000
0000
0000
0000
0010
1000
0001
0100
0010
1000
0001
0100
0010
1000
0001
,
1000
0001
1000
0001
1000
0001
1000
0000
0001
0000
0100
0000
0020
0000
0000
0000
,
1030
0000
0010
0000
1000
0000
0001
0010
0001
0000
0010
0001
0010
0000
0001
1000
,
0001
0000
1000
0001
1000
0000
0100
1000
0100
0000
0100
0000
0010
0000
0100
0000
,
1000
0000
0000
0000
0001
0000
1000
0001
1000
0000
0001
1000
0001
0000
1000
0010
,
1000
0000
0010
1000
0010
0000
0100
0000
0100
0000
0001
0000
0001
0000
1000
0000
,
0001
0010
0100
0010
0001
0010
0100
0010
,
0100
1000
0100
0010
0100
1000
0100
0010
,
0001
1000
0100
0010
0001
1000
0010
0100
0001
1000
0100
0010
0001
0100
0010
1000
,
0000
0000
0000
0000
0001
0000
1000
0000
0100
0010
0001
0010
0001
0000
1000
0000
,
0000
0000
1001
0000
0000
0000
0101
0000
0000
0001
0100
0000
0010
0000
0001
0000
,
0010
0000
1000
0000
0001
1000
0001
0000
1000
0000
0100
0000
0010
0000
0002
0000
,
0000
0000
0103
0000
0010
1000
0010
0000
0100
0001
0100
0000
0001
1000
0001
1000
,
0100
0100
0020
0000
0031
1000
0100
0010
,
0100
0000
0110
0000
0000
0000
1100
0000
0000
1000
0100
0000
1000
0000
0001
0000
,
0100
0001
0100
0000
0001
0100
0001
0000
1000
0010
1000
0000
0001
0100
0010
0000
,
1000
0000
0001
1000
0100
0000
0010
0001
1000
0000
0010
0100
0001
1000
0001
1000
,
0200
0000
0000
0000
0310
0001
0010
0001
1000
0100
0010
0100
1000
0000
0100
0000
,
1000
0000
0000
0000
0001
0100
0001
0100
0010
0001
0010
0100
0001
0000
1000
0000
,
0001
0000
0000
0000
1000
0100
1000
0100
0010
1000
0010
0100
1000
0000
0001
0000
,
0100
0010
1000
0001
1000
0001
0100
0001
1000
0100
0010
0001
1000
0010
0100
0001
,
1000
0000
0000
0000
0001
0100
1000
0100
1000
0100
0001
0100
0001
0000
1000
0000
,
0100
0000
0000
0000
1000
0100
0001
0100
0001
0100
1000
0100
1000
0000
0001
0000
,
0010
0000
0000
0000
0001
0010
0001
0010
1000
0010
1000
0010
0001
0000
1000
0000
,
0010
0100
0001
1000
,
1001
0000
0000
0000
1000
0100
1000
0100
1000
0010
1000
0010
0100
0001
0100
0001
1000
0010
0100
0001
1000
0010
0100
0001
0100
0001
0100
0001
1000
0000
0100
0000
,
0001
0000
0000
0000
0100
0001
0100
0001
0100
1000
0100
1000
0100
0010
0001
0010
0001
1000
0100
0010
0001
1000
0001
0000
0001
0000
1000
0000
2000
0000
0000
0000
,
3020
0000
0000
0000
0130
0000
1000
0100
1000
0100
0001
0100
0001
1000
0001
1000
0010
0100
0001
1000
0001
1000
0100
0010
0001
0010
0001
0010
0001
0000
1000
0000
,
0100
0000
0000
0000
0010
0000
0001
0010
0001
1000
0010
1000
0010
0100
0001
1000
0010
0100
0010
0100
0010
0100
0010
0000
0100
0000
0010
0000
0100
0000
0001
0000
,
1000
0000
0000
0000
1000
0000
0001
0010
0001
0010
0100
1000
0001
0010
0100
1000
0100
1000
0010
0100
0001
0100
0010
1000
0010
1000
0010
1000
0001
0000
1000
0000
,
0100
0000
0000
0000
0100
0000
0010
0001
1000
0100
0010
0001
1000
0100
1000
0001
0100
0001
0100
0001
0100
0010
1000
0000
0010
0000
1000
0000
1000
0000
0001
0000
,
0100
0000
0000
0000
0010
0000
0100
0010
0100
0001
1000
0010
0100
0010
0100
0001
1000
0100
0010
0100
0010
0001
1000
0000
0100
0000
1000
0000
0001
0000
0010
0000
,
0100
0000
0000
0000
1000
0000
0001
0100
0001
0100
0001
1000
0010
1000
0010
0100
0001
1000
0001
1000
0010
0100
0010
0100
0001
0000
1000
0000
1000
0000
0010
0000
,
0100
0000
0100
0000
0001
0100
0010
1000
,
0001
0000
0001
0000
1000
0100
0010
0100
,
1000
0000
0001
0000
0100
0010
1000
0001
,
1000
0100
1000
0010
,
0100
0001
0100
0001
1000
0010
1000
0001
,
0010
0001
1000
0100
0010
0001
0010
0100
,
1000
0001
1000
0001
1000
0001
1000
0001
1000
0001
1000
0001
1000
0001
1000
0001
,
0000
0000
0000
0000
1000
0000
0100
0000
1000
0000
0010
0000
1000
0010
0100
0000
,
0001
0000
0010
0000
0001
0000
0100
0000
0001
0000
0010
0000
0100
1000
0001
0000
,
1000
0000
0100
0000
1000
0000
0100
0000
0001
0000
0100
0000
1000
0000
0100
0020
,
0001
0000
0000
0000
0130
0000
0000
0000
0100
0010
0100
1000
0001
0000
1000
0000
,
0001
0000
0010
0000
0001
0000
1000
0000
0100
0000
0010
0000
0001
2000
0010
0000
,
3010
0000
1000
0000
0010
0000
0100
0001
0010
0000
0100
1000
0001
0000
0100
0000
,
0010
0000
1000
0010
1000
0000
0001
0000
0010
0000
0100
1000
0100
0000
0010
0000
,
0001
0010
0100
0000
1000
0100
0001
0000
0100
1000
0001
0100
0010
1000
0010
1000
,
0010
0000
0100
0000
0010
0000
0100
0000
0001
0000
1000
0000
0001
2000
0100
0000
,
3100
0000
0010
0000
0001
0000
0100
0000
0001
0000
0010
0000
0100
2000
0010
0000
,
3010
0000
1000
0000
0001
0000
0100
0000
0010
0000
1000
0000
0001
0000
0010
0100
,
0010
0000
0100
1000
0100
0000
0010
0001
0100
0001
0100
0010
1000
0010
1000
0001
,
1000
0000
0010
0000
0100
0000
0010
1000
0001
0000
0010
0100
1000
0000
0001
0000
,
1000
0000
0001
0000
0010
0000
0100
1000
0001
0000
0100
0010
1000
0000
0010
0000
,
1000
0001
0100
0010
1000
0001
0100
0010
,
0100
0000
0000
0000
,
0100
0001
0100
0001
0100
0001
0100
0001
1000
0010
1000
0010
1000
0010
1000
0010
,
1000
0100
1000
0100
1000
0100
1000
0100
0010
0001
0010
0001
0010
0001
0010
0001
,
1000
0010
0100
0001
1000
0010
0100
0001
1000
0100
0010
0001
1000
0100
0010
0001
,
1000
0010
0100
0001
0010
0100
1000
0010
0100
0001
1000
0001
2000
0000
0000
0000
,
3000
0000
0000
0000
;
