#TITLE:LOVE MACHINE;
#SUBTITLE:;
#ARTIST:PONY TOWN BOYZ;
#TITLETRANSLIT:;
#SUBTITLETRANSLIT:;
#ARTISTTRANSLIT:;
#GENRE:;
#CREDIT:;
#MUSIC:LOVE MACHINE.mp3;
#BANNER:LOVE MACHINE.png;
#BACKGROUND:LOVE MACHINE-bg.png;
#CDTITLE:;
#SAMPLESTART:0.000;
#SAMPLELENGTH:0.000;
#SELECTABLE:YES;
#OFFSET:-0.030;
#BPMS:0.000=160.070
,195.000=177.000
,196.000=160.000
;
#STOPS:;
#DISPLAYBPM:160.000;
#BGCHANGES:;
#FGCHANGES:;

//--------------- dance-single - HellKiteChaos ----------------
#NOTES:
     dance-single:
     HellKiteChaos:
     Challenge:
     13:
     0,0,0,0,0:
0000
0000
0000
0000
,
0000
0000
0000
0000
,
0000
0000
0000
0000
,
0000
0000
0000
0000
,
1000
0100
0100
1000
0001
0000
0100
0010
,
0100
0001
0010
0100
1000
0000
0001
1000
,
0010
0010
0100
0000
0001
0010
0100
1000
,
0010
0000
0100
0000
0001
0000
0010
0000
0100
0000
1000
0000
0001
1000
0001
0000
,
1000
0100
0000
0010
0100
0100
0010
0001
,
1000
0000
0010
0000
0000
0000
0010
0000
0100
0001
0100
0000
0010
0000
1000
0000
,
0001
0100
1000
0100
0001
0000
0101
0001
,
1000
0001
0010
0001
0100
0110
0000
0110
,
0010
1000
0010
0000
0100
0001
0100
0001
,
0010
1000
0010
0001
0100
0101
0000
0101
,
0001
1000
0100
0000
0100
1000
0001
0100
,
0010
0000
1000
0000
0100
0000
0010
0000
0001
0000
1000
0000
0001
1000
0001
1000
,
0001
1000
0001
0010
0001
0100
0010
2000
,
0000
3001
0010
0001
0100
0001
1000
0200
,
0000
0300
0010
0000
0010
0100
0010
0001
,
2000
0000
3020
0000
0130
0010
0001
0010
,
0100
0001
1000
0100
0010
0001
1000
0002
,
0000
0013
0100
1000
0001
1000
0100
0020
,
0000
0030
0001
0000
1000
0100
0000
0100
,
0110
0000
0011
0001
1000
0001
0100
0010
,
1000
0010
0000
0101
0000
0100
0001
0000
,
1100
0000
0100
0010
0100
0010
0001
1000
,
1001
0000
0001
0100
0000
0010
0100
0001
,
0010
0110
0000
1100
0000
0101
0000
1000
,
0010
1000
0010
0000
1000
0000
0100
0000
0000
0000
1000
0000
0001
0000
0000
0000
,
0010
0100
0010
0000
0100
0000
1000
0000
0000
0000
0001
0000
1000
0000
0010
0000
,
0100
0010
0010
0100
0010
0010
0100
0010
,
0010
1000
0001
0100
0010
0010
1000
0001
,
0100
0000
0100
0000
0001
0000
1000
0100
1000
0100
1000
0000
0001
0000
1000
0000
,
0001
0100
0001
0000
1000
0000
0001
0100
0001
0000
2000
0000
0000
0000
3100
0000
,
0010
0001
0100
0010
1000
0100
0010
0001
,
1000
0010
0100
0001
1000
0001
0000
1000
,
0001
1000
0001
0000
0100
0000
0000
0000
0001
0000
1000
0000
0100
0000
0010
0000
,
0001
0010
0001
0000
1000
0000
0100
0000
0000
0000
0010
0000
0100
0000
1000
0000
,
0001
0010
0001
0000
0100
0000
0010
0000
0100
0000
0010
0000
1000
0000
0100
0000
,
1000
0000
0001
0000
0001
0000
1000
0000
0001
0000
0001
0000
1000
0001
1000
0001
,
0200
0000
0010
0000
0310
1000
0010
1000
,
0200
0000
1000
0000
1300
0100
1000
0100
,
0020
0001
0032
0103
,
0020
0000
1030
0000
0100
0100
0000
0110
,
0010
0001
0100
0010
1000
0100
1000
0100
,
0010
0001
0100
0010
1000
0100
1000
0100
,
0010
0001
0100
0010
1000
0100
0010
0001
,
1000
1000
1000
1000
1000
1000
1000
1000
,
0001
1000
0001
1000
0001
1000
0001
1000
0001
1000
0001
1000
0001
0000
0000
0000
,
1000
0100
0000
0010
0100
0100
0010
0001
,
1000
0000
0010
0000
0000
0000
0010
0000
0100
0001
0100
0000
0010
0000
1000
0000
,
0001
0100
1000
0100
0001
0000
0101
0001
,
1000
0001
0010
0001
0100
0110
0000
0110
,
0010
1000
0010
0000
0100
0001
0100
0001
,
0010
1000
0010
0001
0100
0101
0000
0101
,
0001
1000
0100
0000
0100
1000
0001
0100
,
0010
0000
1000
0000
0100
0000
0010
0000
0001
0000
1000
0000
0001
1000
0001
1000
,
0002
0000
0000
0000
0003
1000
0100
0010
,
0001
0000
2000
0002
0000
0000
3003
0000
;
