#TITLE:LIVING IN AMERICA;
#SUBTITLE:;
#ARTIST:ROSE & JOHN;
#TITLETRANSLIT:;
#SUBTITLETRANSLIT:;
#ARTISTTRANSLIT:;
#GENRE:Dance Dance Revolution 7th Mix -Max2-,Dancing Stage Euromix 2;
#CREDIT:;
#MUSIC:LIVING IN AMERICA.mp3;
#BANNER:LIVING IN AMERICA.png;
#BACKGROUND:LIVING IN AMERICA-bg.png;
#CDTITLE:;
#SAMPLESTART:0.000;
#SAMPLELENGTH:0.000;
#SELECTABLE:YES;
#OFFSET:-0.036;
#BPMS:0.000=169.000;
#STOPS:;
#DISPLAYBPM:169.000;
#BGCHANGES:;
#FGCHANGES:;

//--------------- dance-single - HellKiteChaos ----------------
#NOTES:
     dance-single:
     HellKiteChaos:
     Challenge:
     15:
     0,0,0,0,0:
0000
0000
0000
0000
,
0000
0000
0000
0000
,
0000
0000
1001
1000
1000
0010
0100
0000
,
0001
1000
0000
0001
1000
0001
0010
0000
,
0100
2200
0000
0000
,
3300
0000
1000
0100
0010
0000
0001
0000
1000
0001
1000
0001
0100
0000
0100
0000
,
0010
0000
0000
1000
0010
0000
0010
0000
1000
0000
0000
0001
0100
0000
0100
0000
,
0001
0100
0001
0100
0010
0000
1000
0000
0010
0000
1000
0000
0001
0000
0100
0000
,
0001
0000
0100
0001
1000
0000
0100
0000
1000
0100
0010
0001
1000
0000
0001
0000
,
1000
0001
0010
0100
1000
0000
0100
0000
1000
0001
1000
0001
0010
0000
0100
0000
,
0010
0000
0000
0100
1000
0000
0100
0000
1000
0000
0000
0001
0010
0000
0001
0000
,
1000
0010
1000
0010
0100
0000
0010
0000
0100
0000
0000
0000
0001
0000
1000
0000
,
0001
0000
0000
1000
0100
0000
0010
0000
0100
0000
0010
0000
0001
0000
1000
0000
,
1001
0000
0001
0010
0001
0100
0010
0100
,
0001
0010
0001
0100
1000
0100
0001
1000
,
0100
0000
1000
0100
0010
0100
1000
0010
,
0100
0010
1000
0100
0001
0100
1000
0010
,
0100
0000
0001
0010
0100
0010
0001
0010
,
1000
0010
0001
1000
0010
0100
0001
1000
,
0010
0000
0100
1000
0100
0010
1000
0100
,
0010
0000
0001
0000
1000
0000
0000
0000
0000
0000
0001
1000
0001
0000
1000
0001
,
1000
0100
0010
0001
1000
0000
0001
0000
0100
0000
0010
0000
1000
0000
0100
0000
,
0010
0000
0001
0000
1000
0000
0001
1000
0100
0000
1000
0000
0100
0000
1000
0001
,
0100
0001
0100
0010
1000
0001
0010
0100
,
1000
0000
0001
0000
0010
0000
0100
1000
0001
0000
0100
0000
0001
0000
1000
0001
,
0010
0100
2000
0000
0100
0000
3002
0000
,
0100
0000
1003
0100
1000
0010
0100
0000
,
0110
0000
0100
0001
0010
0001
0100
0010
,
1000
0000
0100
0000
2000
0000
0000
0000
3100
0000
0010
0001
0010
0000
0100
1000
,
0100
0000
0010
0001
1000
0000
0001
0000
1000
0000
0100
0000
0010
0000
0100
0000
,
1000
0001
0200
0000
1000
0000
0010
0000
,
0301
0000
1000
0001
0010
0100
1000
0010
,
0100
0001
0020
0000
1000
0000
0100
0000
,
0031
0001
1000
0010
0100
0001
1000
0100
,
0010
0001
0200
0000
1000
0000
0010
0000
,
0301
0000
1000
0100
0010
0001
1000
0010
,
0100
0001
0020
0000
1000
0000
0100
0000
,
0031
0001
1000
0010
0110
0100
0001
1000
,
1001
0001
0100
0010
2000
0000
0010
0000
,
0100
0000
3001
1000
1001
0001
0010
0001
,
0011
0010
0100
1000
0001
1000
0002
0000
,
1000
0000
0103
0001
1001
1000
0010
0100
,
0101
0001
1000
0100
0010
0001
1000
0000
,
0001
0000
1000
0010
0100
0001
0010
0100
,
1000
0001
0010
0100
1000
0001
0100
0000
,
0000
0000
0001
0010
0100
0000
1000
0000
0001
1000
0001
1000
0010
0000
0010
0000
,
0100
0000
0000
0001
0100
0000
0100
0000
0001
0000
0000
1000
0010
0000
0010
0000
,
1000
0010
1000
0010
0100
0000
0001
0000
0100
0000
0001
0000
1000
0000
0010
0000
,
1000
0000
0010
1000
0001
0000
0010
0000
0001
0010
0100
1000
0001
0000
1000
0000
,
0001
1000
0100
0010
0001
0000
0010
0000
0001
1000
0001
1000
0100
0000
0010
0000
,
0100
0000
0000
0010
0001
0000
0010
0000
0001
0000
0000
1000
0100
0000
1000
0000
,
0001
0100
0001
0100
0010
0000
0100
0000
0010
0000
0000
0000
1000
0000
0001
0000
,
1000
0000
0000
0001
0010
0000
0100
0000
0010
0000
0100
0000
1000
0000
0001
0000
,
1001
0000
1000
0001
0100
0000
0001
0000
0100
0010
1000
0001
1000
0000
0001
0000
,
1000
0000
0000
0001
0010
0000
0010
0000
0001
0000
0000
1000
0100
0000
0100
0000
,
1000
0001
0100
0010
1000
0000
0010
0000
1000
0000
0010
0000
0100
0000
0001
0000
,
0100
0000
0001
1000
0001
0000
1000
0000
0001
0010
0100
1000
0001
0000
0001
0000
,
1000
0100
0010
0001
1000
0000
0001
0000
0010
0100
0010
0100
1000
0000
0001
0000
,
1000
0000
0000
0001
0100
0000
0010
0000
1000
0000
0000
0001
0010
0000
0100
0000
,
1000
0010
0100
0001
2000
0000
0000
0000
0010
0000
0000
0000
3002
0000
0000
0000
,
0103
0000
0001
1000
0100
0000
0010
0000
0100
0010
0100
1000
0001
0000
1000
0000
,
1001
0000
0000
0000
;
