#TITLE:HONEY♂PUNCH;
#SUBTITLE:;
#ARTIST:小坂りゆ;
#TITLETRANSLIT:HONEY PUNCH;
#SUBTITLETRANSLIT:;
#ARTISTTRANSLIT:RIYU KOSAKA;
#GENRE:;
#CREDIT:;
#MUSIC:HONEY PUNCH.mp3;
#BANNER:HONEY PUNCH.png;
#BACKGROUND:HONEY-PUNCH-bg.png;
#CDTITLE:;
#SAMPLESTART:32.070;
#SAMPLELENGTH:15.180;
#SELECTABLE:YES;
#OFFSET:-0.056;
#BPMS:0.000=175.000;
#STOPS:;
#BGCHANGES:;
#FGCHANGES:;

//--------------- dance-single - HellKiteChaos ----------------
#NOTES:
     dance-single:
     HellKiteChaos:
     Challenge:
     13:
     0,0,0,0,0:
0000
0000
0000
0000
,
0000
0000
0000
0000
,
0000
0000
0000
0000
,
0000
0000
0000
0000
,
0001
0100
0010
1000
0001
0010
0100
1000
,
2100
3002
0203
0320
,
1030
0001
1000
0100
0010
0001
1000
0001
,
0000
1001
0001
0100
0000
0110
0100
0001
,
1000
0100
0010
0002
0000
0103
0010
2000
,
0000
3100
0000
0110
0100
1000
0001
0001
,
0100
0001
0010
0200
0000
1300
0010
0002
,
0000
0023
0000
2030
0000
3001
1000
0001
,
0100
0010
1000
1000
0100
0010
0001
0001
,
0000
1001
0000
0110
0010
0100
0001
0010
,
0110
0100
1000
0001
0101
0100
0010
1000
,
0001
1000
1000
0001
0001
0100
0110
0000
,
0010
0100
0201
0000
1000
0000
0301
1000
,
0100
0010
0001
1000
0010
0100
0001
0010
,
0100
1000
1200
0000
0001
0000
1000
0000
,
0010
1000
0001
1300
,
0100
1000
0100
1000
0010
0100
0010
0100
,
0001
0100
0001
0100
0001
1000
0001
1000
,
0100
0010
0001
0100
0010
1000
0100
0010
,
0001
1000
0001
1001
0000
0000
0000
0000
,
2001
0000
3100
1000
0010
1000
0001
0000
,
1002
0000
0103
0001
0010
0001
1000
0001
,
1002
0023
0100
1000
,
0100
0000
0030
0002
0000
2003
0001
3000
,
0001
0100
0010
0100
0001
0100
0010
0000
,
1000
0100
0010
0001
0100
0010
1000
0001
,
0100
0001
0100
0000
0010
1000
0010
0010
,
0100
0000
0001
0000
1000
0001
1000
0001
,
0201
0000
0310
0100
0001
0100
0010
0000
,
1200
0000
0310
0100
1000
0100
0010
0000
,
2001
0000
3010
0100
0001
0010
0100
1000
,
0002
0000
1003
0002
0000
1003
0001
0001
,
1000
0010
1000
0010
0100
0001
0100
0001
,
1000
0100
0010
0001
0100
0010
1000
0000
,
1001
1000
0100
0000
1001
0001
0010
0000
,
0110
1001
0110
1001
,
2000
0000
3100
0000
1000
0100
1000
0001
,
0200
0000
0302
0000
2003
0000
3100
0010
,
0010
0000
0000
0012
0000
1003
0100
0010
,
0002
0103
0010
0100
,
0001
0001
0100
0010
0000
0100
0010
1000
,
0001
0001
1000
0200
0000
0000
0310
0000
,
0011
0000
0001
1000
1100
0000
1000
0001
,
0101
1010
0101
0000
,
0000
0002
2003
3200
0320
0032
2003
3010
,
0000
0110
0000
1001
0000
0002
0203
0320
,
0030
0200
0320
2030
3200
0302
0203
2300
,
3000
0101
0000
1100
0000
0110
0100
0010
,
0000
0002
0023
2030
3020
0230
2300
3002
,
0003
0101
0000
1100
0000
1001
0001
1000
,
0000
0200
2300
3002
0023
0230
2300
3001
,
0000
0101
0100
0001
0001
1000
1000
0001
,
2001
0000
3100
0001
0100
1000
0001
0000
,
1002
0000
0103
1000
0100
0001
1000
0001
,
2001
0000
3100
0010
0001
0100
0010
1000
,
0002
0000
0103
0020
0000
1030
0200
0000
,
0310
0001
0010
0001
1000
0010
1000
0010
,
0100
0001
0010
0100
1000
0001
1000
0000
,
0101
0000
1010
0000
1000
0100
0011
0001
,
2000
3200
0320
0031
,
0001
0100
1000
0100
0001
0100
1000
0100
,
0001
0010
0001
0100
0001
0010
0001
0000
,
1000
0100
0001
0100
1000
0100
0010
0001
,
0000
0011
0010
0100
0000
1100
1000
0001
,
0000
0101
0001
0010
0000
2002
0000
0000
,
0000
0000
0000
0000
,
0000
0000
0000
0000
,
0000
0000
0000
0000
,
3003
0000
0000
0000
;
