#TITLE:HERO (HAPPY GRANDALE MIX);
#SUBTITLE:;
#ARTIST:PAPAYA;
#TITLETRANSLIT:;
#SUBTITLETRANSLIT:;
#ARTISTTRANSLIT:;
#GENRE:;
#CREDIT:;
#MUSIC:HERO (HAPPY GRANDALE MIX).mp3;
#BANNER:HERO (HAPPY GRANDALE MIX).png;
#BACKGROUND:HERO (HAPPY GRANDALE MIX)-bg.png;
#CDTITLE:;
#SAMPLESTART:0.000;
#SAMPLELENGTH:0.000;
#SELECTABLE:YES;
#OFFSET:-0.253;
#BPMS:0.000=170.000;
#STOPS:;
#DISPLAYBPM:170.000;
#BGCHANGES:;
#FGCHANGES:;

//--------------- dance-single - HellKiteChaos ----------------
#NOTES:
     dance-single:
     HellKiteChaos:
     Challenge:
     14:
     0,0,0,0,0:
0000
0000
0000
0000
,
0000
0000
0000
0000
,
0000
0000
0000
0000
,
0000
0000
0000
0000
,
0000
0000
0000
0000
0000
1000
1000
0100
,
2000
0000
3002
0000
0003
0001
0001
0100
,
0002
1003
0100
0010
,
0001
1000
1001
1001
,
0110
0000
0000
0000
1001
0000
0000
0000
0001
0000
0100
0000
0002
0100
0003
0200
,
0000
0000
0310
0000
1000
0000
1000
0000
0100
0000
1000
0000
0100
0000
1000
0200
,
0000
0300
0100
0000
0010
0000
0010
0000
0001
0000
0100
0000
0002
0100
0003
0200
,
0000
0000
0310
0000
1000
0000
1000
0000
0010
0000
0100
0000
0010
0000
0100
0020
,
0000
0030
0100
0000
0001
0000
1000
0000
0100
0000
0010
0000
0002
0010
0003
0020
,
0000
0000
0130
0000
0010
0000
0001
0000
0100
0000
0010
0000
1000
0000
0010
2000
,
0000
3000
0001
0000
1000
0000
0010
0000
0100
0000
0001
0000
2000
0100
3000
0200
,
0000
0000
0310
0000
0100
0000
0010
0000
0001
0000
0010
0000
0100
0000
0010
0200
,
0000
0300
0010
0000
0100
0000
1000
0000
0001
0000
0100
0000
0001
0000
1000
0000
,
0010
0100
0001
1000
0100
0010
0100
1000
,
0001
0100
0010
0000
1000
0010
0000
0010
,
0100
0010
0100
1000
0100
0001
0100
0010
,
1000
0000
0001
0100
0001
0000
0100
0010
0100
0000
0010
0000
1000
0000
0010
0000
,
0001
0010
0100
0001
1000
0010
0100
0001
,
0010
0100
1000
0000
1000
0100
1000
0001
,
0100
0100
0010
0000
0100
0010
0100
0001
,
1000
0000
0001
0000
1000
0100
0001
0100
,
1000
0010
1000
0100
0001
0100
1000
0010
,
1000
0100
0000
0010
0001
0100
1000
0100
,
0001
0010
0001
0100
1000
0100
0001
0010
,
0001
0000
0100
0001
0100
0000
0010
1000
0100
0000
0001
0000
0100
0000
1000
0000
,
0010
0100
0010
1000
0100
0001
0100
1000
,
0010
0100
0001
1000
0000
0100
0000
0010
,
0000
0001
1000
0100
0010
0001
0010
0001
,
0010
0000
0001
0000
0010
0001
0010
0001
0010
0000
0001
0000
0100
0000
0001
0000
,
0010
1000
0010
0001
0100
0001
0010
0001
,
0100
1000
0100
0001
1000
1000
1000
1000
,
0001
0001
0001
0001
0100
0010
1000
0100
,
0010
0000
0001
1000
0001
0000
1000
0001
1000
0000
0010
0000
0001
0000
0010
0000
,
1000
0100
1000
0010
0001
0010
1000
0100
,
0001
0100
1000
0001
1000
1000
1000
1000
,
0010
0010
0010
0010
0110
0000
1001
0000
,
0110
0000
0000
0000
0010
1000
0100
0001
,
0100
1000
0010
0000
0100
0001
0010
1000
,
0010
0001
0100
0000
0010
1000
0100
0010
,
0001
0100
1000
0100
0001
0001
1000
1000
,
0001
0000
0100
0010
1000
0000
0100
0010
0001
0000
0100
0000
0001
0000
0010
0000
,
1000
0010
0001
0100
0001
0010
0100
0010
,
0001
0001
1000
1000
0010
0001
0010
1000
,
0100
0000
1000
0000
0010
0000
1000
0000
0001
0000
1000
0000
0001
1000
0000
0001
,
1000
0001
1000
0000
0001
1000
0001
1000
0001
0000
0010
0000
0100
0000
0010
0000
,
1000
0010
0100
0010
0001
1000
0100
0010
,
0001
0100
0001
0010
0001
0100
1000
0100
,
0001
0010
0001
0100
1000
0100
0001
0100
,
1000
0100
0001
1000
0001
0010
0100
0010
,
0001
0100
0010
1000
0100
0001
0100
1000
,
0010
0001
0010
1000
0001
0100
1000
0100
,
0001
0010
0001
0100
1000
0100
0001
0100
,
0010
1000
0100
0100
0020
0000
0000
0000
,
0030
0000
0000
0000
;
