#TITLE:GOLDEN SKY;
#SUBTITLE:;
#ARTIST:SMiLE.dk;
#TITLETRANSLIT:;
#SUBTITLETRANSLIT:;
#ARTISTTRANSLIT:;
#GENRE:;
#CREDIT:;
#MUSIC:GOLDEN SKY.mp3;
#BANNER:GOLDEN SKY.png;
#BACKGROUND:GOLDEN SKY-bg.png;
#CDTITLE:;
#SAMPLESTART:27.573;
#SAMPLELENGTH:15.000;
#SELECTABLE:YES;
#OFFSET:-0.063;
#BPMS:0.000=135.030
,93.000=133.030
,94.000=135.030
,110.000=137.030
,111.000=137.500
,112.000=135.030
;
#STOPS:;
#BGCHANGES:;
#FGCHANGES:;

//--------------- dance-single - HellKiteChaos ----------------
#NOTES:
     dance-single:
     HellKiteChaos:
     Challenge:
     12:
     0,0,0,0,0:
0000
0000
0000
0000
,
0000
0000
0000
0000
,
0000
0000
0000
0000
,
0000
0000
0000
0000
,
1000
0000
0001
0100
0010
0000
1000
0000
0001
0000
1000
0100
0010
0000
0001
0000
,
1000
0000
0010
0100
0001
0000
1000
0000
0001
0000
0010
0000
0100
0000
1000
0000
,
0002
0003
0000
0000
2000
3000
0200
0300
2000
3000
0200
0300
0020
0030
0002
0003
,
1000
0000
0001
1000
0001
0000
0100
0000
0010
0000
0000
1000
0001
0000
1000
0000
,
0001
0100
0001
0010
0001
1000
0001
0100
,
0001
1000
0001
0010
0100
0000
0110
0000
,
0100
1000
0100
0001
0100
1000
0100
0001
,
0100
1000
0010
0100
0001
0000
1001
0000
,
1000
0010
1000
0001
1000
0100
1000
0001
,
1000
0010
1000
0001
0100
0000
0110
0000
,
0010
1000
0100
0001
0100
1000
0010
0100
,
0002
0000
1000
1003
,
1001
0000
1001
0100
0010
0000
1001
0100
,
0010
0000
1001
0100
0010
0100
0010
0100
,
1001
0000
0001
0100
1000
0000
0001
0010
,
1000
0001
0110
1001
,
1000
0100
0001
0010
1000
0000
0001
1000
,
0001
0010
1000
0100
0001
0000
1000
0000
,
0002
0000
2003
3200
0320
0032
0203
0320
,
2030
3100
0110
1001
,
0001
0000
0010
0100
1000
0000
0001
0000
1000
0000
0010
0100
0001
0000
1000
0000
,
0001
0000
0100
0010
1000
0000
0001
0000
1000
0000
0100
0000
0010
0000
0001
0000
,
2000
3000
0000
0000
0002
0003
0200
0300
0002
0003
0200
0300
0020
0030
2000
3000
,
0100
0000
0010
0100
0010
0000
0100
0000
0020
0000
0000
0000
0130
0000
0000
0000
,
1001
0000
1001
0100
0010
0000
1001
0100
,
0010
0000
1001
0100
0010
0100
0010
0100
,
1001
0000
0001
0100
1000
0000
0001
0010
,
1000
0001
0110
1001
,
1000
0100
0001
0010
1000
0000
0001
1000
,
0001
0010
1000
0100
0001
0000
1000
0000
,
0002
0000
2003
3200
0320
0032
0203
0320
,
2030
3100
0020
0031
,
1001
0000
1001
0100
0010
0000
1001
0100
,
0010
0000
1001
0100
0010
0100
0010
0100
,
1001
0000
1000
0100
0001
0000
1000
0010
,
0001
1000
1100
0011
,
1000
0100
0001
0010
1000
0000
0001
1000
,
0001
0010
1000
0100
0001
0000
1000
0000
,
0002
0000
2003
3200
0320
0032
0203
0320
,
2030
3100
0010
0001
,
1002
0000
0203
0000
,
0310
0000
1000
0100
0001
0010
1000
0100
,
0002
0000
2003
0000
,
3100
0000
0010
0010
,
0001
0100
1000
0100
0001
0000
1000
0100
,
0001
0100
1000
0010
0100
0000
0100
0000
,
0001
0000
0001
0010
1000
0100
0001
0010
,
2000
0000
0000
0000
0000
0000
0000
3000
;
