#TITLE:Dragon Blade;
#SUBTITLE:;
#ARTIST:Kozo Nakamura;
#TITLETRANSLIT:;
#SUBTITLETRANSLIT:;
#ARTISTTRANSLIT:;
#GENRE:;
#CREDIT:;
#MUSIC:Dragon Blade.mp3;
#BANNER:Dragon Blade.png;
#BACKGROUND:Dragon Blade-bg.png;
#CDTITLE:;
#SAMPLESTART:27.310;
#SAMPLELENGTH:10.000;
#SELECTABLE:YES;
#OFFSET:0.899;
#BPMS:0.000=240.000;
#STOPS:;
#BGCHANGES:;
#FGCHANGES:;

//--------------- dance-single - HellKiteChaos ----------------
#NOTES:
     dance-single:
     HellKiteChaos:
     Challenge:
     16:
     0,0,0,0,0:
0000
0000
0000
0000
,
0000
0000
0000
0000
,
0000
0000
0000
0000
,
0000
0000
0000
0000
,
0000
0000
0000
0000
,
1000
0000
0001
0100
0001
0100
0010
1000
,
0010
0000
1000
0100
1000
0100
0010
0001
,
0010
0000
0001
0010
0100
1000
0001
0010
,
0100
0000
1001
0000
1000
0001
1000
0001
,
1001
0000
0101
0000
0001
0100
0000
0010
,
1000
0010
1000
0000
0001
0100
0000
0001
,
1000
0100
0010
0001
0100
0010
1000
0000
,
0001
0100
1000
0100
0010
0100
0000
0001
,
0100
0001
1000
0001
0010
0001
0100
0010
,
1000
0100
0000
0010
0001
0000
1000
0000
,
0100
0010
0001
0000
0100
0010
0001
0000
,
0010
1000
0100
0010
0001
0100
0010
1000
,
0000
0101
0000
1001
0000
0101
0000
0001
,
0100
0000
0000
0010
0000
0000
1000
0000
0000
0100
0000
0000
0010
0000
0001
0000
0010
0000
0001
0000
0000
0000
0000
0000
,
1000
0100
0010
0100
1000
0001
0100
0010
,
0100
0001
1000
0100
0010
0001
1000
0010
,
0100
0001
1000
0100
0010
0001
0100
0010
,
1000
0100
1000
0010
0100
0001
0010
0001
,
1000
0100
1000
0100
0010
0001
1000
1001
,
0000
0001
0100
0001
0010
0100
1000
0001
,
0100
0000
0001
0000
0100
0000
0001
0000
0000
0000
0000
0000
1000
0000
0010
0000
1000
0000
0010
0000
0000
1000
0000
0000
,
0001
0000
1000
0000
0001
0000
1000
0000
0000
0000
0000
0000
0001
0000
0010
0000
0001
0000
0010
0000
0000
0001
0000
0000
,
2000
0000
3000
0000
0001
1000
0001
1000
,
0000
0000
0010
0100
0001
1000
0010
0100
,
0001
0000
0001
0010
0000
0010
0200
0000
,
0300
0000
0100
1000
0100
1000
0001
0100
,
0010
0000
1000
0010
0100
0001
1000
0010
,
0100
0000
0001
0010
0100
1000
0001
0010
,
0100
0000
1000
0010
0100
0001
0010
0100
,
1000
0000
0001
0100
0010
1000
0100
0010
,
0002
0000
0003
0000
1000
0001
1000
0001
,
0000
1001
0000
1010
0000
1001
0000
1100
,
0200
0000
0000
0010
0000
0000
0310
0000
,
0000
0010
0001
0010
0001
0010
0001
0000
,
1000
0000
0100
1000
1100
0000
1000
0001
,
1001
0000
0001
0100
0101
0000
0100
0010
,
1000
0010
0000
1000
0100
0000
1000
0010
,
0000
1000
0100
0000
0010
0001
0100
0010
,
1000
1000
0000
0001
0001
0000
1000
1000
,
0000
0000
1000
0001
1000
0100
0010
0001
,
1001
1001
0000
0000
0000
0000
0000
0000
,
0000
0000
0000
0000
0001
0100
0000
0000
,
0110
0110
0000
0000
0000
0000
0000
0000
,
0010
0100
0220
0330
,
1001
1001
0000
0000
1001
1001
0000
0000
,
1001
1001
0000
0000
0010
0100
0000
0000
,
1001
1001
0110
1001
,
0001
0010
0100
1000
0020
0000
0030
0000
,
0100
0001
0100
0001
1000
0010
1000
0010
1000
0001
1000
0001
,
1000
0100
1000
0100
0010
0001
0010
0001
1000
0010
1000
0010
,
0100
0010
0100
0010
1000
0001
1000
0001
0010
0100
1000
0001
,
2000
0000
3000
0000
0100
0010
0100
0010
,
0001
1000
0100
0010
0001
1000
0001
0100
0010
1000
0001
1000
,
0100
0010
0001
1000
0001
0100
0010
1000
0001
0100
0010
1000
,
0001
0010
0100
1000
0010
0100
0001
1000
0100
0010
0001
1000
,
0001
0000
0000
0000
0100
0001
0100
0001
,
2000
0010
0010
3001
,
0100
0000
0100
0010
0000
0010
1000
0000
,
2001
0100
0100
3100
,
0020
0000
0000
0032
0000
0000
1003
0000
,
0100
0010
0100
0010
0001
1000
0010
0000
,
0200
0000
0000
0302
0000
0000
1003
0000
,
0010
0100
0010
0100
0001
1000
0100
0000
,
0010
0001
1000
0100
0010
0001
1000
0100
,
0010
0000
0011
0000
0001
0010
0000
0010
,
0100
0001
0100
1000
0001
0100
0000
0010
,
2020
3030
0000
0202
0303
0000
2002
0000
,
3003
0000
0100
0010
2002
0000
3003
0000
,
1000
0100
1000
0010
1000
0001
1000
0010
,
0000
0100
0010
0100
1000
0100
0000
0010
,
0100
0001
1000
0010
0100
0001
1000
0100
,
0010
0001
1000
0010
0200
0000
0300
0000
,
0010
0100
0001
0000
1000
0010
0001
0000
,
0010
0100
0001
0000
1000
0010
0001
0010
,
1000
0001
0000
0101
0000
1010
0000
0001
,
1000
0001
1000
0001
1000
0100
0010
0001
,
1000
0100
0010
0001
1000
0010
0100
0001
,
0010
1000
0001
0100
1000
0001
0100
0010
,
1000
0100
0010
0100
1000
0100
0001
0100
,
1000
0001
0100
0010
2000
0000
3000
0000
,
0001
0010
0000
0100
1000
0001
0000
1001
,
0000
1000
0010
0100
0001
0010
0100
1000
,
0001
0010
0100
1000
0001
0010
0100
1000
0010
0100
0001
1000
,
0010
0000
1010
0000
1010
0000
1001
0000
1001
0000
0101
0000
,
0101
0000
1001
0000
1100
0000
1001
0000
0101
0000
1001
0000
,
0000
0000
0000
0000
,
2002
0000
3003
0000
;
