#TITLE:Diamond Dust;
#SUBTITLE:;
#ARTIST:TAG;
#TITLETRANSLIT:;
#SUBTITLETRANSLIT:;
#ARTISTTRANSLIT:;
#GENRE:;
#CREDIT:;
#MUSIC:Diamond Dust.ogg;
#BANNER:Diamond Dust.png;
#BACKGROUND:Diamond Dust-bg.png;
#CDTITLE:;
#SAMPLESTART:17.860;
#SAMPLELENGTH:15.000;
#SELECTABLE:YES;
#OFFSET:-0.003;
#BPMS:0.000=148.148
,4.000=148.001
;
#STOPS:;
#DISPLAYBPM:148.000;
#BGCHANGES:;
#FGCHANGES:;

//--------------- dance-single - HellKiteChaos ----------------
#NOTES:
     dance-single:
     HellKiteChaos:
     Challenge:
     14:
     0,0,0,0,0:
0000
0000
0000
0000
,
0000
0000
0000
0000
,
0000
0000
0000
0000
,
1000
0000
0000
0001
0000
0000
0100
0000
0000
0010
0000
0000
1000
0000
0100
0000
,
0010
0000
0000
0001
0000
0000
1000
0000
0000
0100
0000
0000
0010
0000
0001
0000
,
0100
0000
0000
0010
0000
0000
1000
0000
0000
0001
0000
0000
0010
0000
0100
0000
,
1000
0000
0000
0001
0000
0000
0100
0000
0000
0010
0000
0000
1000
0000
0100
0000
,
0010
0001
1000
0010
0100
0001
1000
0100
,
0010
0000
0001
1000
0100
0000
0010
0001
1000
0000
0010
1000
0001
0000
0100
0001
,
1000
0000
0000
0001
0000
0000
1000
0000
0000
0001
0000
0000
0100
0000
0010
0000
,
1001
0000
0000
1000
0100
0000
1001
0000
0000
0001
0100
0000
0110
0000
1001
0000
,
0001
0000
1000
0010
1000
0010
0100
0000
0001
0000
1000
0000
0001
0000
1000
0100
,
1000
0100
0010
0000
0001
0000
1000
0000
0001
0000
1000
0010
0100
0000
0001
0000
,
0000
0000
0001
0000
1000
0001
1000
0001
0010
0100
1000
0001
1000
0000
0001
0000
,
0000
0101
0000
0011
0000
0001
1000
0001
,
0100
0000
0000
0000
0010
1000
0010
0000
1000
0000
0010
0100
0000
0000
0001
1000
,
0000
0000
0010
0100
0000
0000
2001
0000
0000
0000
0010
0000
0000
0000
3100
0000
,
0110
0000
0010
0000
0001
0010
0001
0000
1000
0000
0001
0100
0001
1000
0010
0000
,
1000
0000
0010
0100
0001
0000
1000
0100
0010
0000
0001
0000
1000
0000
0100
0000
,
1000
0000
0100
0010
0100
0010
0001
0000
1000
0000
0001
0000
0100
0000
0010
1000
,
0010
1000
0100
0000
0010
0000
0100
0000
0010
0000
0001
1000
0100
0000
1000
0000
,
0100
0000
0010
0001
1000
0010
1000
0010
0100
0001
1000
0001
1000
0000
0001
0000
,
0000
0011
0000
1100
0000
0101
0100
0010
,
1000
0000
0010
0000
1000
0010
0100
0000
0001
0000
1000
0010
0000
0000
0100
0001
,
0000
0000
0010
0100
0000
0000
2100
0000
0000
0000
0001
0000
0000
0000
3010
0000
,
1010
0000
0101
1001
0000
1010
0000
2200
,
0000
0000
0000
3300
,
1000
0100
0010
0001
0100
0000
0010
0000
0000
0000
1000
0000
0100
0000
0000
0000
,
0010
0001
1000
0010
0100
0000
0001
0000
0000
0000
0010
0000
0001
0000
0010
0000
,
0001
1000
0010
0100
0001
0000
1000
0000
0000
0000
0001
0000
0100
0000
0000
0000
,
0010
0100
0001
1000
0010
0000
1000
0000
0000
0000
0100
0000
1000
0000
0100
0000
,
1000
0100
0010
0001
1000
0100
0010
0001
1000
0000
0001
0000
0100
0000
0000
0000
,
0010
1000
0001
0100
0010
1000
0001
0100
0010
0000
1000
0000
0100
0000
0000
0000
,
0010
0001
1000
0100
0010
0001
1000
0010
0100
0001
1000
0100
0010
0001
1000
0001
,
2000
0000
0001
0001
0000
0001
0000
3001
,
0200
0010
0000
1000
0000
0010
0000
0001
,
0000
0010
0000
0001
0000
0010
0300
0001
,
1000
0010
0000
0100
0001
1000
0000
0100
,
0010
0001
0000
1000
0010
0100
0001
1000
,
0100
0000
0000
0000
,
0110
0000
0000
0000
,
0011
0000
0000
0000
,
0101
0000
0000
0000
0000
0000
0000
0000
0010
0000
0000
0000
1000
0001
1000
0001
,
1000
0001
0100
0010
1000
0100
0000
0001
,
0100
0010
1000
0100
0000
0001
0100
0010
,
0000
1000
0100
0010
0001
0100
0010
1000
,
0000
0100
0000
0010
0000
0001
0100
0010
,
1000
0000
0001
0100
0000
1010
0000
1100
,
0000
0101
0000
0011
0000
0000
0000
0000
,
0110
0000
1000
0001
0000
0100
0010
1000
,
0000
0000
0101
0000
0000
0000
1100
0000
0000
0000
1010
0000
0010
0000
0100
0001
,
1000
0000
0001
0100
0001
0100
0010
0000
1000
0000
0001
0000
1000
0000
0001
0010
,
0001
0010
0100
0000
1000
0000
0001
0000
1000
0000
0001
0100
0010
0000
1000
0000
,
0000
0000
1000
0000
0001
1000
0001
1000
0100
0010
0001
1000
0001
0000
1000
0000
,
0000
1010
0000
1100
0000
1000
0001
1000
,
0010
0000
0000
0000
0100
0001
0100
0000
0001
0000
0100
0010
0000
0000
1000
0001
,
0000
0000
0100
0010
0000
0000
1002
0000
0000
0000
0100
0000
0000
0000
0013
0000
,
0110
0000
1100
0101
0000
1010
0000
2002
,
0000
0000
0000
3003
,
0110
0000
0001
1000
0000
0220
0000
0000
,
0000
0000
0000
0000
,
0330
0000
0000
0000
;
