#TITLE:Dance Dance Revolution;
#SUBTITLE:;
#ARTIST:DDR ALL STARS;
#TITLETRANSLIT:;
#SUBTITLETRANSLIT:;
#ARTISTTRANSLIT:;
#GENRE:;
#CREDIT:;
#MUSIC:Dance Dance Revolution.mp3;
#BANNER:Dance Dance Revolution.png;
#BACKGROUND:Dance Dance Revolution-bg.png;
#CDTITLE:;
#SAMPLESTART:0.000;
#SAMPLELENGTH:0.000;
#SELECTABLE:YES;
#OFFSET:-0.289;
#BPMS:0.000=150.000;
#STOPS:;
#DISPLAYBPM:*;
#BGCHANGES:;
#FGCHANGES:;

//--------------- dance-single - HellKiteChaos ----------------
#NOTES:
     dance-single:
     HellKiteChaos:
     Challenge:
     13:
     0,0,0,0,0:
0000
0000
0000
0000
,
0001
0000
0000
0010
0000
0000
0100
0000
0000
1000
0000
0000
0102
0000
0000
0000
,
1003
0000
0000
0010
0000
0000
0100
0000
0000
0001
0000
0000
2100
0000
0000
0000
,
3001
0000
0000
1000
0000
0000
0100
0000
0000
0010
0000
0000
0021
0000
0000
0000
,
0031
0000
0100
0000
0010
0000
1000
0100
0010
0001
1000
0000
0000
0000
0000
0000
,
1000
0000
0000
0000
0101
0000
0000
0000
0010
0000
0000
1000
0000
0000
0200
0000
,
0000
0000
0310
0000
0011
0000
0000
0000
0001
0000
0000
0100
0000
0000
0020
0000
,
0000
0000
1030
0000
1010
0000
0000
0000
0010
0000
0000
0100
0000
0000
0020
0000
,
0000
0000
1030
0000
1001
0000
0000
0000
0001
0000
0000
1000
0000
0000
0100
0000
,
0010
0001
0100
0001
0010
0100
1000
0010
,
0100
0010
1000
0100
0010
0001
0100
1000
,
0100
0001
0010
0001
0100
1000
0100
0001
,
1000
0000
0100
0000
0010
0000
0001
1000
0000
0000
0001
0000
1000
0000
0001
0000
,
1000
0000
0100
0000
0110
0000
0000
0000
0010
0000
0001
1000
0001
0000
0000
0000
,
0100
0001
0100
0000
0010
0000
1000
0000
0001
0000
0100
0000
0101
0000
0000
0000
,
2010
0010
3010
0100
0201
0001
0301
1000
,
0100
0000
0010
0000
0001
0000
1000
0000
0001
0000
1000
0001
1000
0010
0100
0001
,
1000
0100
1000
0001
0010
0001
1000
0100
,
1000
0010
0100
0001
0010
0100
1000
0001
,
0100
0010
0100
0001
0010
0100
0010
0001
,
0100
0000
0010
0000
1000
0000
0001
0000
1001
0000
0000
0101
0000
0000
0110
0000
,
1010
0000
0010
0000
0100
0000
0000
0000
0010
0100
0010
0100
0001
0000
2000
0000
,
0000
0000
3100
0000
0010
0000
0001
0000
1000
0000
0000
0001
0000
0000
2000
0000
,
0000
0000
3100
0000
1000
0000
0001
0000
0010
0000
0000
0100
0000
0000
2000
0000
,
0000
0000
3001
0000
0100
0000
0001
0000
0010
0000
0100
1000
0100
1000
0001
0100
,
0010
0000
0000
1010
0000
0000
0110
0000
0000
0000
0010
0000
0100
0000
0010
0000
,
0110
0000
0000
0101
0000
0000
1001
0000
0000
0000
0001
0000
0100
0000
0001
0000
,
1001
0000
0000
1100
0000
0000
0110
0000
0000
0000
0001
0000
1000
0000
0100
0000
,
1100
0000
0000
0011
0000
0000
1100
0000
0000
0000
1000
0000
0001
0000
1000
0000
,
0001
1000
0100
0000
1000
0000
0001
0000
1000
0001
0100
0000
0001
0000
1000
0000
,
0001
1000
0010
0000
1000
0000
0001
0000
1000
0001
0010
0000
0100
0000
1000
0000
,
0100
0010
0001
0100
0010
1000
0001
0010
,
1100
0000
0000
0000
0101
0000
0000
0000
0001
0000
0100
0000
0010
1000
0010
1000
,
0001
0100
0010
1000
0001
0100
1010
0000
,
0101
0001
1000
0100
0010
0001
0101
0000
,
1010
1000
0100
0010
0001
0100
0010
1000
,
0100
0000
0010
0000
0100
0000
1000
0001
0000
0000
0100
0000
0010
0000
1000
0000
,
0001
0000
0010
0000
0001
0000
1000
0010
0100
0000
0010
0000
0100
0000
0000
0000
,
0001
0000
1000
0000
0001
0000
1000
0100
0010
0000
0100
0000
0010
0000
0000
0000
,
0011
0001
1000
0001
1000
1000
0001
1000
,
0100
0000
0100
0000
0100
0000
0020
0002
0000
0000
0030
0000
0003
0000
0000
0000
,
1000
0000
0000
0001
0000
0000
0100
0000
0010
0000
1000
0100
0000
0010
0002
0000
,
0000
0000
0103
0000
0010
0000
0100
0000
0001
0000
0010
0100
0000
1000
0002
0000
,
0000
0000
0103
0000
0010
0000
1000
0000
0001
0000
0100
0010
0000
1000
0200
0000
,
0000
0000
0310
0000
0100
0000
0010
0000
0011
0000
0000
1100
0000
0000
0010
0001
,
1000
0010
1010
0000
1000
0010
1000
0100
,
0010
0100
0110
0000
0010
0001
0100
0010
,
1000
0100
0110
0000
0001
0100
0110
0000
,
1000
0000
0100
0000
0010
0000
0001
0100
0000
0010
0000
1000
0001
1000
0001
1000
,
0100
0000
0010
0000
0100
0000
0010
0001
0100
0000
0010
0000
0100
0000
0010
1000
,
0100
0010
0100
1000
0001
0100
0010
0100
,
1000
0100
0001
0100
1000
0100
0001
1000
,
0100
0000
1000
0100
2000
0000
3001
0000
0010
0000
0001
0010
0002
0000
1003
0000
,
0010
1000
0010
0000
0100
0000
0010
1000
0010
0000
0100
0000
0010
1000
0010
0000
,
0100
0000
0010
1000
0010
0000
0100
0000
0001
0000
1000
0000
0100
0000
0010
0000
,
0011
0001
0100
0000
1010
1000
0100
0010
,
0011
0000
0000
1100
0000
0000
0101
0000
1010
0000
0000
0101
0000
0000
0011
0000
,
1000
0100
0000
0010
0001
0000
1000
0100
0000
0010
0001
0000
1100
0000
0101
0000
;
