#TITLE:DRIFTING AWAY;
#SUBTITLE:;
#ARTIST:LANGE feat. SKYE;
#TITLETRANSLIT:;
#SUBTITLETRANSLIT:;
#ARTISTTRANSLIT:;
#GENRE:;
#CREDIT:;
#MUSIC:DRIFTING AWAY.mp3;
#BANNER:DRIFTING AWAY.png;
#BACKGROUND:DRIFTING AWAY-bg.png;
#CDTITLE:;
#SAMPLESTART:0.000;
#SAMPLELENGTH:0.000;
#SELECTABLE:YES;
#OFFSET:-0.040;
#BPMS:0.000=136.000;
#STOPS:;
#DISPLAYBPM:136.000;
#BGCHANGES:;
#FGCHANGES:;

//--------------- dance-single - HellKiteChaos ----------------
#NOTES:
     dance-single:
     HellKiteChaos:
     Challenge:
     13:
     0,0,0,0,0:
0000
0000
0000
0000
,
0000
0000
0000
0000
,
0000
0000
0000
0000
,
0000
0000
0000
0000
,
2000
0010
0010
0001
,
0001
0100
0100
3001
,
0010
0100
0001
0000
0010
0100
1000
0000
,
0010
0100
0010
0100
0001
1000
0100
0010
,
0002
1000
1000
0100
,
0100
0010
0010
1003
,
1000
0001
0100
0000
0001
1000
0010
0000
,
1000
0001
0010
0100
1000
0001
1001
0000
,
1000
0100
1000
0010
1000
0001
1000
0000
,
0001
0100
0001
0010
0001
1000
0001
0000
,
1000
0100
0010
0001
1000
0001
0100
0000
,
0001
0100
0010
1000
0001
1000
0100
0000
,
0010
0001
0011
0000
0001
1000
1100
0000
,
1000
0010
1010
0000
1000
0001
0101
0000
,
0001
1000
0100
1000
0001
0010
0001
0100
,
1000
0100
0001
0010
0100
1000
0001
0100
,
0020
1000
0000
1000
,
2030
0001
0000
0001
,
3002
0010
0000
0010
,
0023
0100
0000
0100
,
0130
0000
1000
0000
0200
0000
0000
0320
0000
0000
0031
0000
0010
0000
0001
0000
,
0010
0000
0001
0000
0200
0000
0000
0320
0000
0000
1030
0000
0010
0000
1000
0000
,
0010
0000
1000
0000
0200
0000
0000
0320
0000
0000
0031
0000
0010
0000
0001
0000
,
1000
0001
0100
0010
1000
0100
0010
0000
,
0001
1000
0000
0000
0002
0000
0000
0100
0000
0103
0000
0000
0001
0000
1000
0000
,
0100
0010
0000
0000
0020
0000
0000
0001
0000
0031
0000
0000
0001
0000
1000
0000
,
0010
0100
0000
0000
0200
0000
0000
0001
0000
0301
0000
0000
0100
0000
1000
0000
,
0100
0010
0000
0000
0020
0000
0000
1000
0000
1030
0000
0000
0001
0000
1000
0000
,
0100
0001
0100
1000
0001
0010
0100
1000
,
0001
0100
1000
0100
0001
1000
0010
0100
,
0001
0010
0001
0100
0010
1000
0100
1000
,
0010
0100
0001
0010
0100
1000
0001
0100
,
0010
1000
0000
0010
1000
0000
0001
0100
0000
0001
0100
0000
0010
0000
0100
0000
,
0001
0010
0000
0001
0010
0000
0100
1000
0000
0100
1000
0000
0001
0000
0100
0000
,
0010
0100
0000
0010
0100
0000
0001
1000
0000
0001
1000
0000
0100
0000
0010
0000
,
0001
1000
0000
0001
1000
0000
0010
0100
0000
0010
0100
0000
0010
0000
1000
0000
,
0100
0010
0000
0001
1000
0000
0100
0010
0000
0001
1000
0000
0100
0000
0010
0000
,
0001
1000
0000
0010
0100
0000
0001
1000
0000
0010
0100
0000
0001
0000
1000
0000
,
0001
0100
0000
0010
1000
0000
0001
0010
0000
0100
1000
0000
0001
0000
1000
0000
,
0010
0100
0000
0001
1000
0000
0100
0010
0000
0001
1000
0000
0010
0000
0100
0000
,
0001
0100
0001
0100
0001
0000
1000
0100
0000
0200
0000
0000
1300
0000
0001
0000
,
1000
0100
1000
0100
1000
0000
0001
0100
0000
0200
0000
0000
0301
0000
1000
0000
,
0001
0010
0001
0010
0001
0000
1000
0010
0000
0020
0000
0000
1030
0000
0001
0000
,
1000
0010
1000
0010
1000
0000
0001
0010
0000
0020
0000
0000
0031
0000
1000
0000
,
0100
0010
0000
0010
0001
0000
0001
1000
0000
1000
0001
0000
1000
0000
0001
0000
,
1000
0010
0000
0010
0100
0000
0100
0001
0000
0001
1000
0000
0001
0000
1000
0000
,
0001
0010
0000
0010
0100
0000
1000
0010
0000
0010
0100
0000
0001
0000
1000
0000
,
0001
0100
0000
0100
0010
0000
1000
0100
0000
0100
0010
0000
0001
0000
1000
0000
,
0200
0000
0300
0000
;
