#TITLE:CARTOON HEROES (Speedy Mix);
#SUBTITLE:;
#ARTIST:BARBIE YOUNG;
#TITLETRANSLIT:;
#SUBTITLETRANSLIT:;
#ARTISTTRANSLIT:;
#GENRE:;
#CREDIT:;
#MUSIC:CARTOON HEROES (Speedy Mix).mp3;
#BANNER:CARTOON HEROES (Speedy Mix).png;
#BACKGROUND:CARTOON HEROES (Speedy Mix)-bg.png;
#CDTITLE:;
#SAMPLESTART:0.000;
#SAMPLELENGTH:0.000;
#SELECTABLE:YES;
#OFFSET:-0.259;
#BPMS:0.000=170.000;
#STOPS:;
#DISPLAYBPM:170.000;
#BGCHANGES:;
#FGCHANGES:;

//--------------- dance-single - HellKiteChaos ----------------
#NOTES:
     dance-single:
     HellKiteChaos:
     Challenge:
     16:
     0,0,0,0,0:
0000
0000
0000
0000
,
0000
0000
0000
0000
,
0000
0000
0000
0000
,
0000
0000
0000
0000
,
1000
0000
0010
0000
0100
0000
0001
1000
0000
0001
1000
0000
0100
0000
0010
0000
,
0001
0000
1000
0000
0010
0000
0100
0010
0000
0100
0010
0000
1000
0000
0001
0000
,
0010
0000
0100
0000
1000
0000
0001
0100
0000
0010
1000
0000
0001
0000
1000
0000
,
0001
0000
0010
0000
0100
0000
1000
0010
0000
0100
0001
0100
0001
0000
1000
0000
,
2002
0000
0000
3003
,
1000
0000
0001
1000
0010
0000
1000
0000
0001
0000
1000
0001
0010
0000
0001
0000
,
1000
0000
0100
1000
0001
0000
0100
0000
0010
0000
1000
0000
0100
0000
0010
0000
,
0001
0000
1000
0001
0100
0000
0010
0000
1000
0000
0001
1000
0100
0000
0010
0000
,
0001
0000
1000
0010
0100
0000
0001
0000
0010
0000
0100
0000
1000
0000
0010
0000
,
0100
0000
0001
1000
0100
0000
0010
0000
0001
0000
1000
0010
0100
0000
0001
0000
,
1000
0000
0100
0010
0001
0000
1000
0000
0010
0000
0100
0000
0001
0000
0010
0000
,
0110
0000
1100
0000
1001
0001
0100
0110
,
0000
0000
1010
0000
1000
0000
0100
0000
0100
0000
0010
0000
0001
0010
0001
0010
,
0100
0000
1000
0000
1100
0000
0100
0000
1000
0001
1000
0001
0100
0000
0010
0000
,
1000
0000
1010
0000
0000
0000
0101
0000
0000
0000
0010
0000
1000
0001
1000
0001
,
0010
0100
1000
1100
0000
0011
1000
1010
,
0000
0101
0001
1001
1000
0100
1000
0010
,
0100
0001
0100
0000
0010
1000
0010
0000
0100
0000
0010
0000
0100
0000
1000
0000
,
0001
0000
1000
0000
0100
0000
0000
0000
0010
0001
0010
0000
0001
0000
0010
0000
,
0011
0001
1000
0001
0010
0001
1000
0001
,
0100
0000
0010
0000
1000
0000
0100
0000
0010
0000
0001
0000
1000
0001
1000
0001
,
0100
0010
0100
1000
0100
0010
0100
0001
,
1000
0000
0010
0000
0100
0000
0001
0000
1000
0000
0100
0000
0010
0001
1000
0010
,
0100
0010
0100
0001
1000
0001
0010
0100
,
0010
1000
0010
0100
0010
0001
1000
0001
,
1001
1000
1100
0000
0011
0001
1000
1010
,
0010
0000
0110
0000
0100
0000
0101
0000
0001
0000
1000
0000
0001
1000
0010
0100
,
0002
1000
0103
1000
2000
0001
0100
3001
,
1000
1100
0001
0101
1000
1100
0001
0101
,
2000
0010
3001
0002
1000
0010
1003
0100
,
0010
0001
0100
0010
1000
0100
0010
0000
,
0011
0001
0100
0001
0010
0000
0100
0100
,
1100
1000
0010
1000
0100
0010
0110
0000
,
1001
0100
1001
0000
0110
1000
0001
1001
,
0000
0110
0100
0010
0110
1000
1001
0000
,
1000
0000
0010
1000
0001
0000
0100
0001
1000
0000
0100
0010
0001
0000
1000
0010
,
0100
0000
0001
1000
0010
0000
1000
0001
0100
0000
0001
0000
1000
0000
0100
0000
,
0010
0000
0100
0010
0001
0000
0100
0010
1000
0000
0001
1000
0010
0000
0100
0010
,
1000
0001
0012
0000
1003
1000
2100
0001
,
3001
0000
0100
0001
1000
0000
0100
1000
0001
0000
0100
0010
1000
0000
0001
0100
,
0010
0000
1000
0001
0010
0000
0001
1000
0100
0000
0010
0001
1000
0000
0001
0000
,
1000
0000
0001
0010
0001
0000
0010
0100
0010
0000
0100
1000
0100
0000
1000
0001
,
2000
0010
0010
3002
0010
0010
0103
0000
,
0101
0000
0100
0000
0010
0000
0100
0000
1000
0000
0100
0000
0001
0100
0001
0000
,
1000
0100
0010
0100
0001
0100
1000
0001
,
1000
0010
1000
0010
0100
0010
0100
0010
0100
0001
0100
0001
1000
0001
1000
0001
,
1000
0100
1000
0100
0010
0100
0010
0100
0010
0001
0010
0001
1000
0001
1000
0001
,
0100
0000
0010
0000
0100
0000
1000
0000
0100
0000
0001
0000
1000
0001
1000
0001
,
1000
0100
0010
0100
0001
0100
1000
0001
,
0100
0001
0100
0001
0100
0010
0100
0010
1000
0010
1000
0010
1000
0001
1000
0001
,
0010
0001
0010
0001
0010
0100
0010
0100
1000
0100
1000
0100
1000
0001
1000
0001
,
1000
0000
0001
0100
0020
0000
1000
0000
1000
0000
0100
0000
2030
0000
0000
0000
,
3001
0000
1000
0100
0020
0000
0001
0000
0001
0000
0100
0000
0032
0000
0000
0000
,
1003
1000
0100
0100
0010
0010
0001
0001
,
1000
0001
1000
0001
0100
0000
0010
0000
0100
0000
0010
0000
0110
0000
0000
0000
,
0001
1000
0001
1000
0100
0000
0010
0000
0100
0000
0010
0000
0110
0000
0000
0000
,
0010
0001
0010
0000
0100
1000
0100
0000
0010
0001
1000
0000
0010
1000
0010
1000
,
0020
0000
0000
0000
,
0030
0000
0000
0000
;
