#TITLE:CAN'T STOP FALLIN' IN LOVE (super euro version);
#SUBTITLE:;
#ARTIST:NAOKI with Y&Co.;
#TITLETRANSLIT:;
#SUBTITLETRANSLIT:;
#ARTISTTRANSLIT:;
#GENRE:;
#CREDIT:;
#MUSIC:CAN'T STOP FALLIN' IN LOVE (super euro version).mp3;
#BANNER:CAN'T STOP FALLIN' IN LOVE (super euro version).png;
#BACKGROUND:CAN'T STOP FALLIN' IN LOVE (super euro version)-bg.png;
#CDTITLE:;
#SAMPLESTART:45.010;
#SAMPLELENGTH:15.000;
#SELECTABLE:YES;
#OFFSET:-0.135;
#BPMS:0.000=155.000;
#STOPS:;
#BGCHANGES:;
#FGCHANGES:;

//--------------- dance-single - HellKiteChaos ----------------
#NOTES:
     dance-single:
     HellKiteChaos:
     Hard:
     12:
     0,0,0,0,0:
0000
0000
0000
0000
,
1000
0000
0000
0000
0001
0000
0000
0100
0000
0000
0100
0000
0010
0000
0000
0000
,
1000
0000
0000
0000
0001
0000
0000
0010
0000
0000
0010
0000
0100
0000
0000
0000
,
1000
0000
0000
0000
0001
0000
0000
0100
0000
0000
0100
0000
0010
0000
1000
0000
,
0100
0010
0100
0010
0001
1000
0001
1000
,
0010
1000
0100
1000
0010
0000
0100
0102
,
0000
1003
0100
0010
0001
0000
1100
0000
,
0001
0100
0001
0010
0001
0000
1000
2100
,
0000
3001
0001
0100
0110
0000
1001
0000
,
0001
0010
0001
0100
0001
0000
0010
0210
,
0000
1300
0100
0010
0002
0000
2003
0000
,
3200
0000
0000
0010
0020
0000
0000
0000
,
0000
0000
0000
0330
,
0000
0010
0001
0010
0000
0100
1000
0100
,
1000
0010
1000
0100
0010
0001
0010
0000
,
0001
0001
0010
0001
1000
1000
0100
1000
,
0001
0010
0100
0010
0001
0010
0100
0000
,
0000
0100
1000
0100
0000
0010
0001
0010
,
0100
0100
1000
0001
1000
0001
0100
0000
,
0010
1000
0001
1000
0100
0010
0001
1000
,
0010
0100
0000
0100
0000
0001
1000
0000
,
1100
0000
1001
0000
0001
1000
0100
0000
,
1000
0001
1000
0100
1000
0001
1000
0100
,
0010
0100
0010
0100
0010
0001
0000
0001
,
0100
0200
0000
0010
0300
0220
0000
0330
,
0110
0000
0101
0000
0100
0010
0100
0000
,
0010
0100
0001
0100
0010
0100
0001
0001
,
1000
0100
1000
0100
0010
0001
0000
2001
,
0000
0100
0100
3200
0000
0010
0310
0000
,
0010
0001
0100
1000
0100
0001
0010
0001
,
0100
1010
0101
1010
,
0010
1000
0100
0001
0100
1000
0010
1000
,
0100
0110
0011
1001
,
0001
0100
1000
0100
0001
0010
0100
1000
,
0010
0100
0001
1000
0100
0001
0100
1000
,
0001
1000
0001
1000
0010
0100
0001
1000
,
0100
0010
0100
0010
0100
0010
0001
0000
,
1000
0001
0000
0000
0010
0000
0010
0000
0001
1000
0000
0000
0010
0000
0010
0000
,
0000
0110
0000
0100
0001
1000
0010
0100
,
0001
1000
0000
0000
0100
0000
0100
0000
1000
0001
0000
0000
0100
0000
0100
0000
,
0000
0110
0000
0010
1000
0001
0100
0010
,
1000
0100
0010
0100
1000
0010
0001
0010
,
1000
0100
0010
0100
1000
0010
0100
0001
,
0010
0100
1000
0100
0010
0001
0010
0100
,
1000
1100
0000
0102
0000
1000
1003
0000
,
1000
0010
1000
0100
0001
0100
1000
0010
,
0100
0101
0010
1100
,
0001
0010
1000
0010
0001
0100
0001
0010
,
0100
1100
0010
0101
,
0100
0010
1000
0100
0000
0110
0000
1001
,
0000
0000
1000
1000
,
0001
0100
0001
0100
0010
1000
0010
1000
,
0001
0010
0001
0010
0100
1000
0001
0100
,
0010
1000
0100
1000
0010
0000
0100
0102
,
0000
1003
0100
0010
0001
0000
1100
0000
,
0001
0100
0001
0010
0001
0000
1000
2100
,
0000
3001
0001
0100
0110
0000
1001
0000
,
0001
1000
0100
1000
0010
0000
0010
0120
,
0000
1030
0100
0010
0012
0000
1000
0000
,
0203
0000
0000
0010
0020
0000
0000
0000
,
0000
0000
0000
0330
,
2001
0000
0000
0000
3100
0000
0000
1000
0000
0000
0001
0000
0100
0000
0000
0000
,
1002
0000
0000
0000
0103
0000
0000
0001
0000
0000
1000
0000
0100
0000
0000
0000
,
0120
0000
0000
0000
0031
0000
0000
1000
0000
0000
0001
0000
0100
0000
0100
0000
,
0010
1000
0100
0010
0001
1000
0010
0100
,
0001
0000
0000
0000
;

//--------------- dance-single - HellKiteChaos ----------------
#NOTES:
     dance-single:
     HellKiteChaos:
     Challenge:
     15:
     0,0,0,0,0:
0000
0000
0000
0000
,
1000
0010
0000
0000
0010
0000
0000
0100
0000
0000
0001
0000
1000
0000
0000
0000
,
0001
0010
0000
0000
0010
0000
0000
0100
0000
0000
1000
0000
0001
0000
1000
0000
,
0100
0010
0000
0000
0010
0000
0000
0001
0000
0000
1000
0000
0010
0000
0100
0000
,
0001
1000
0001
1000
0100
0010
0001
1000
,
0010
0100
0010
1000
0010
0100
0001
0100
,
0010
1000
0100
0010
0011
0000
1100
0000
,
0001
0010
0100
0010
0001
0010
0100
1000
,
0100
0010
0001
0010
0110
0000
1100
0000
,
1000
0001
0100
0001
1000
0100
0010
0100
,
1000
0001
0100
0010
1000
0100
0010
0001
,
2000
0000
0000
0001
0002
0000
0000
3003
,
0001
0010
0001
0010
0100
1000
0001
0000
1000
0010
1000
0010
0100
0001
1000
0000
,
0001
0000
1000
0000
0100
0000
1000
0000
0001
0000
0100
0001
0100
0000
0000
0000
,
0010
0000
0100
0000
0001
0000
0100
0000
0010
0000
1000
0010
1000
0000
0000
0000
,
1000
1000
0100
0010
0001
0001
1000
0001
,
1000
0000
0100
1000
0100
0000
0010
0001
0010
0000
0001
1000
0001
1000
0001
1000
,
0100
0000
1000
0000
0010
0000
0100
0000
0010
0000
1000
0001
1000
0000
0000
0000
,
1000
1000
0010
0100
0001
0001
0010
0000
,
0100
1000
0100
0000
1000
0000
0001
0000
0010
0001
0010
0000
0001
0000
1000
0000
,
0010
0000
1000
0010
0100
0000
0010
0000
0100
0000
0001
0100
0010
0000
1000
0000
,
0001
0100
0101
0000
1000
0010
1010
0000
,
1000
0100
1000
0010
1000
0100
1100
0000
,
0010
0010
0001
0100
0010
0010
1000
0100
,
1000
0100
2000
0000
0000
0000
3002
0000
0000
0000
0200
0000
0000
0000
0303
0000
,
0001
0000
0100
0000
0010
0000
0100
0000
0001
0000
0010
0100
1000
0000
0010
0000
,
0001
0010
1000
0100
0001
0100
1000
0010
,
1010
0000
1000
0000
0100
1100
0000
0011
,
0000
0010
0100
0110
0000
1001
1001
0000
,
1000
0100
0010
0100
1000
0100
0010
0100
,
1000
0100
1000
0100
0010
0100
0010
0100
1000
0100
1000
0100
0010
0000
0000
0000
,
0001
0010
0100
0010
0001
0010
0100
0010
,
0001
0010
0001
0010
0100
0010
0100
0010
0001
0010
0001
0010
0100
0000
0000
0000
,
1000
0001
0010
0100
1000
0001
0100
0010
,
1000
0010
0100
0010
1000
0100
0010
0001
,
1000
0100
1000
0100
0010
0001
0010
0001
1000
0010
1000
0010
0100
0010
0100
0010
,
0100
0010
0100
0001
1000
0010
0100
0001
,
1000
0000
0001
1000
0100
0000
0010
0001
0010
0000
0100
0000
1000
0000
0100
0000
,
0010
0000
0010
0000
0100
0000
0010
0100
0010
0000
0000
0000
0110
0000
0010
0000
,
0001
0000
1000
0001
0100
0000
0010
1000
0010
0000
1000
0000
0010
0000
0010
0000
,
0100
0010
0010
0100
0001
1000
0010
0100
,
0001
0000
0100
0001
0100
0000
0001
0000
1000
0000
0100
0010
0100
0000
1000
0000
,
0001
0000
0010
0001
0010
0000
0100
0000
1000
0000
0001
0000
0100
0000
0010
0000
,
1000
0100
0010
0001
0100
0010
1001
0000
,
0001
1001
0000
0101
0000
1010
0000
1000
,
1000
0010
0100
0010
0001
0010
0100
0010
,
1000
0000
0010
1000
0010
0000
1000
0000
1000
0000
0001
0010
0001
0000
0010
0000
,
0001
0100
0010
1000
0010
0100
0010
1000
,
0100
0010
0001
1000
0100
0010
0100
0000
0010
0000
0001
0000
1000
0001
1000
0001
,
2000
0000
0001
3002
0000
0100
0000
0200
,
0000
0303
0000
0000
1010
0000
0101
0000
,
0010
1000
0001
0100
0010
1000
0100
0010
,
0001
1000
0100
0010
0001
1000
0100
0010
0001
1000
0001
1000
0010
0100
0010
0100
,
0001
0000
0100
0000
0010
0000
1000
0000
0010
0000
0010
0000
1000
0100
2000
0000
,
0000
3001
0100
0010
1010
0000
0101
0000
,
1000
0000
0010
0000
0100
0000
0010
0000
1000
0000
0010
0000
0100
0001
0200
0000
,
0000
0310
1000
0010
0110
0000
0101
0000
,
0001
0000
1000
0000
0100
0000
1000
0000
0001
0000
0100
0000
0010
1000
0200
0000
,
0000
1300
0100
0010
0001
0100
0010
1000
,
0002
0000
0000
1000
2000
0000
0000
3003
,
1000
0010
0100
0001
1000
0010
0100
0001
0010
0100
1000
0001
0010
0100
1000
0001
,
1000
0100
0000
0000
0100
0000
0000
0010
0000
0000
0001
0000
0101
0000
0000
0000
,
0001
0100
0000
0000
0010
0000
0000
1000
0000
0000
0100
0000
1100
0000
1000
0000
,
0001
0010
0000
0000
0010
0000
0000
0100
0000
0000
1000
0000
0001
0000
1000
0000
,
0010
0100
0010
0100
0001
0010
0100
1000
0001
1000
0001
1000
0010
0100
0001
1000
,
0100
0000
0000
0000
;
