#TITLE:BYE BYE BABY BALLOON;
#SUBTITLE:;
#ARTIST:JOGA;
#TITLETRANSLIT:;
#SUBTITLETRANSLIT:;
#ARTISTTRANSLIT:;
#GENRE:;
#CREDIT:;
#MUSIC:BYE BYE BABY BALLOON.mp3;
#BANNER:BYE BYE BABY BALLOON.png;
#BACKGROUND:BYE BYE BABY BALLOON-bg.png;
#CDTITLE:;
#SAMPLESTART:0.000;
#SAMPLELENGTH:0.000;
#SELECTABLE:YES;
#OFFSET:-0.042;
#BPMS:0.000=145.000;
#STOPS:;
#DISPLAYBPM:145.000;
#BGCHANGES:;
#FGCHANGES:;

//--------------- dance-single - HellKiteChaos ----------------
#NOTES:
     dance-single:
     HellKiteChaos:
     Hard:
     11:
     0,0,0,0,0:
0000
0000
0000
0000
,
0000
0000
0000
0000
,
0000
0000
0000
0000
,
0000
0000
0000
0000
,
0000
0000
0000
0000
,
1000
0000
0000
0100
0000
0000
1100
0000
0000
1000
0000
0000
0001
0000
0100
0000
,
0010
0000
0000
1000
0000
0000
1010
0000
0000
0010
0000
0000
1000
0000
0001
0000
,
0100
0000
0000
0001
0000
0000
0101
0000
0000
0100
0000
0000
0010
0000
0100
0000
,
0010
0000
0000
1000
0000
0000
0100
0000
0010
0000
0000
0001
0000
0000
1000
0000
,
0001
0000
0100
0002
0000
1003
0100
1000
,
0020
0000
1030
0020
0000
0130
0001
0100
,
0002
0000
0013
0002
0000
0103
0010
1000
,
0200
0000
1300
0010
0100
0010
0100
0001
,
2000
0000
3100
2000
0000
3001
0010
0100
,
0020
0000
0130
0020
0000
0130
1000
0001
,
0200
0000
0310
2000
0000
3010
0100
0001
,
0010
0000
0000
0000
0100
0000
0000
0000
1000
0000
0000
0001
1000
0000
0001
0000
,
0101
0000
0101
0000
1000
0010
1000
0010
,
1000
0000
1100
0000
1000
0010
0100
0001
,
0010
0000
0011
0000
0001
1000
0100
0010
,
0000
0010
0000
0010
0000
0100
0000
0100
,
1100
0000
1100
0000
1000
0010
0100
0001
,
0100
0000
0101
0000
0001
0100
0010
1000
,
0001
0000
1000
0000
0100
0000
1000
0001
,
0000
1000
0000
0001
0000
0200
0020
0000
,
0000
0000
0330
0000
,
0110
0000
2001
0000
3001
0100
0010
1000
,
0100
0000
1002
0000
1003
0100
0010
0001
,
0100
0000
2001
0000
3001
1000
0001
1000
,
0001
0000
0110
0000
1000
0100
0001
0100
,
1000
0000
1002
0000
0103
0001
0010
0100
,
1000
0000
0021
0000
0130
1000
0010
0100
,
0001
0000
0102
0000
1003
0010
0100
0010
,
1000
0000
0001
0000
0010
0100
0010
0100
,
1100
0000
0012
0000
0103
1000
0001
0010
,
0100
0000
0120
0000
0130
1000
0001
0100
,
0010
0000
0210
0000
0310
1000
0001
0100
,
0010
0000
1002
0000
1003
0100
0001
0100
,
1000
0000
2001
0000
3001
0100
0010
1000
,
0001
0000
1002
0000
1003
0100
0010
0001
,
1000
0000
2001
0000
3001
0100
0001
0020
,
0000
0230
0000
1300
0002
0000
0203
0000
,
0310
0000
0000
0010
0000
0000
1000
0000
0000
1000
0000
0000
0001
0000
1000
0000
,
0100
0000
0000
0100
0000
0000
0010
0000
0000
0010
0000
0000
0001
0000
1000
0000
,
0100
0000
0000
0010
0000
0000
0001
0000
0000
1000
0000
0000
0010
0000
0100
0000
,
0001
0000
0000
0010
0000
0000
0001
0000
0100
0000
0000
0001
0000
0000
0010
0000
,
0100
0010
0100
1000
0001
0100
0010
1000
,
0001
1000
0001
1000
0100
0010
0001
0000
,
1000
0010
1000
0001
0100
0001
0100
0001
,
1000
0000
0000
0100
0000
0000
1000
0000
0001
0000
0000
0100
0000
0000
0010
0000
,
2002
0000
0000
0000
,
3003
0000
0000
0000
;

//--------------- dance-single - HellKiteChaos ----------------
#NOTES:
     dance-single:
     HellKiteChaos:
     Challenge:
     14:
     0,0,0,0,0:
0000
0000
0000
0000
,
0000
0000
0000
0000
,
0000
0000
0000
0000
,
0000
0000
0000
0000
,
0000
0000
0000
0000
,
1000
0000
0001
0100
0000
0010
0100
0000
0001
0100
0000
0010
1000
0000
0001
0000
,
1000
0000
0001
0010
0000
0100
0010
0000
0001
0010
0000
0100
1000
0000
0001
0000
,
1000
0000
0001
0100
0000
0001
1000
0000
0001
0100
0000
0010
1000
0000
0001
0000
,
1000
0000
0000
0100
0000
0000
1000
0000
0001
0000
0000
0100
0000
0000
0010
0000
,
1000
0000
0010
1000
0010
0000
0100
0000
0010
0000
1000
0010
1000
0000
0010
0000
,
0100
0000
0010
1000
0010
0000
0100
0000
0010
0000
1000
0010
1000
0000
0010
0000
,
0100
0000
0010
1000
0010
0000
1000
0000
0010
0000
0100
0010
0100
0000
0010
0000
,
1000
0100
0010
0001
0100
0010
1000
0000
,
0001
0000
0010
0001
0010
0000
0100
0000
0010
0000
0001
0010
0001
0000
0010
0000
,
0100
0000
0010
0001
0010
0000
0100
0000
0010
0000
0001
0010
0001
0000
0010
0000
,
0100
0000
0010
0001
0010
0000
0100
0000
0010
0000
0001
0010
0001
0000
0010
0000
,
0001
0000
0010
0100
0010
0000
0100
0000
1000
0001
1000
0000
1001
0000
0000
0000
,
0001
0100
2001
0000
3001
0100
0010
1000
,
0001
0100
1002
0000
0013
0100
1000
0001
,
0010
0100
0210
0000
1300
0001
0100
0010
,
1000
1020
0000
2030
0000
3001
0101
0000
,
0001
0010
1002
0000
0103
0010
1000
0100
,
1000
0010
2001
0000
3001
0010
0100
1000
,
0100
0010
0120
0000
0031
0100
0010
0010
,
1000
0000
0001
0000
1000
0001
1000
0000
0010
1000
0010
0000
0100
0010
2000
0002
,
0000
0000
3003
0000
,
1001
0000
1000
0000
0010
0000
0100
0000
0001
0100
0001
0100
0001
0000
1000
0000
,
1001
0000
0001
0000
0010
0000
0100
0000
1000
0100
1000
0100
1000
0000
0001
0000
,
0110
0000
1000
0000
0001
0000
0010
0000
0001
1000
0001
1000
0001
0000
1000
0000
,
0010
0000
0100
0000
0010
0000
1000
0000
0001
0100
0001
0000
1000
0010
0100
0001
,
1000
0000
0001
0000
0101
0000
0100
0000
0010
1000
0010
1000
0100
0000
0010
0000
,
0001
0000
1000
0000
1100
0000
0100
0000
0010
0001
0010
0001
0100
0000
0010
0000
,
1000
0000
0010
0000
1010
0000
1000
0000
0001
0010
0100
1000
0001
0000
1000
0000
,
0100
0000
0000
0010
0100
0000
0010
0000
0001
0010
0001
0000
1000
0100
1000
0100
,
1000
0000
0100
0000
2100
0000
0001
0000
3001
0000
1000
0000
0001
0100
0010
1000
,
0001
0000
0100
0000
0102
0000
1000
0000
1003
0000
0001
0000
1000
0100
0010
0001
,
1000
0000
0001
0000
0012
0000
1000
0000
1003
0000
0001
0000
1000
0010
0100
0001
,
1000
0000
0001
0000
0100
0000
0100
0000
0010
1000
0010
0000
0100
0001
0100
0000
,
0101
0000
0001
0000
0201
0000
0001
0000
0310
0000
1000
0000
0001
0010
0100
0000
,
1100
0000
1000
0000
1200
0000
1000
0000
0310
0000
0001
0000
1000
0010
0100
0001
,
1000
0001
0100
0001
1000
0010
0100
0001
,
1000
0000
0100
0000
1000
0000
0010
0000
1000
0100
0010
0001
0100
0010
1000
0001
,
2000
0000
0000
3020
0000
0000
0230
0000
0000
0302
0000
0000
0013
0000
0100
0000
,
2000
0000
0000
3002
0000
0000
0203
0000
0000
0320
0000
0000
1030
0000
0001
0000
,
2000
0000
0000
3200
0000
0000
0320
0000
0000
0032
0000
0000
1003
0000
0010
0000
,
0200
0000
0000
0302
0000
0000
2003
0000
0020
3000
0000
0230
0000
0000
0301
0000
,
0010
0000
0100
1000
0000
0100
2000
0000
0000
0000
3001
0000
0010
0000
0100
0000
,
1000
0000
0001
0100
0000
0001
0200
0000
0000
0000
0310
0000
0100
0000
0010
0000
,
1000
0000
0001
1000
0000
0001
0020
0000
0000
0000
0130
0000
1000
0000
0010
0000
,
0100
0000
0000
0001
0000
0000
1000
0000
0010
1000
0010
0000
0100
0001
0100
0001
,
0020
0000
0000
0000
,
0030
0000
0000
0000
;
