#TITLE:BROKEN MY HEART;
#SUBTITLE:;
#ARTIST:NAOKI Feat.PAULA TERRY;
#TITLETRANSLIT:;
#SUBTITLETRANSLIT:;
#ARTISTTRANSLIT:;
#GENRE:;
#CREDIT:;
#MUSIC:BROKEN MY HEART.mp3;
#BANNER:BROKEN MY HEART.png;
#BACKGROUND:BROKEN MY HEART-bg.png;
#CDTITLE:;
#SAMPLESTART:34.780;
#SAMPLELENGTH:12.000;
#SELECTABLE:YES;
#OFFSET:-0.055;
#BPMS:0.000=160.200;
#STOPS:;
#DISPLAYBPM:160.000;
#BGCHANGES:;
#FGCHANGES:;

//--------------- dance-single - HellKiteChaos ----------------
#NOTES:
     dance-single:
     HellKiteChaos:
     Challenge:
     13:
     0,0,0,0,0:
0000
0000
0000
0000
,
0000
0000
0000
0000
,
0000
0001
0000
0010
0000
0100
0000
1000
,
0000
0100
0000
0010
0000
0001
0000
0010
,
0100
0000
0010
0000
0100
0000
1000
0100
1000
0000
0100
0000
0010
0000
0001
0010
,
0001
0000
0010
0000
0100
0000
1000
0100
1000
0000
0100
0000
0010
0000
0001
0010
,
0001
0000
0010
0000
0100
0000
1000
0100
1000
0000
0001
0000
1000
0000
0001
0000
,
2000
0000
0000
3000
0000
0000
0000
0000
,
0001
0100
0010
0100
1000
0100
0001
1000
,
0100
0010
0001
0100
0010
1000
0100
0010
,
0001
0010
0100
0010
1000
0010
0001
0100
,
0010
1000
0001
0010
0100
1000
0001
0000
,
1000
0010
0100
0000
1000
0010
0100
0000
,
1000
0010
0100
0010
1000
0010
0100
0001
,
0010
0010
0100
0000
0100
0100
1000
0000
,
0001
0000
0100
0000
0010
0000
1000
0000
0100
0000
0010
0000
0001
0010
0001
0010
,
0001
0100
0001
0010
0001
0100
0001
0010
,
0001
1000
0001
0100
0001
0010
0001
0001
,
1000
0010
1000
0100
1000
0010
1000
0100
,
1000
0001
1000
0010
1000
0100
1000
0000
,
0002
0010
0010
0023
0000
0130
1000
0100
,
2000
0001
0001
3001
0000
0101
0110
0101
,
0000
1010
0110
1010
0000
0101
0000
1001
,
0000
0001
1000
0000
1000
0000
1000
0000
,
1000
0100
0010
0001
1000
0100
0010
0001
,
1000
0100
1000
0010
1000
0010
0100
0000
,
0001
0100
0010
1000
0001
0100
0010
1000
,
0001
0100
0001
0010
0001
0100
0010
0010
,
2000
0100
0001
0100
,
0010
0001
0010
0001
,
3100
0000
0011
0011
0000
0000
0100
0000
,
1010
0000
0010
0000
1000
0000
1001
0000
0001
0000
0100
0000
0001
0100
0001
0100
,
0010
0200
0000
0302
0000
2003
0000
3020
,
0000
0030
0000
0000
0000
0000
0000
0200
,
0000
0302
0000
2003
0000
3200
0000
0320
,
0000
0030
0000
0000
0000
0000
0000
0000
,
0001
0010
0001
0000
1000
0000
0001
0010
0001
0000
1000
0000
0001
0000
1000
0000
,
0001
0000
1000
0001
1000
0000
0010
0000
0100
0000
0010
0000
1000
0000
0001
0000
,
0100
0000
0001
0100
0001
0000
0100
0010
0100
0000
0010
1000
0010
0000
1000
0001
,
1000
0000
0001
0000
0100
0000
0001
0000
0010
0000
0001
0000
1000
0001
1000
0001
,
0100
0001
0100
0010
0100
1000
0100
0010
,
0100
0001
0100
0010
0100
0001
0100
0010
,
0100
1000
0100
0001
0100
1000
0100
0001
,
0100
0010
0100
0001
0100
1000
0100
0010
,
1000
0100
1000
0001
1000
0010
1000
0100
,
1000
0010
1000
0001
1000
0100
0010
0001
,
0000
0011
0000
1100
0000
0110
0000
1001
,
0000
0100
0100
0000
0000
0000
0000
0000
,
0000
0000
1001
0000
0001
0000
0100
0010
,
1000
0000
0001
0010
1000
0010
0100
1000
,
0001
0000
0100
1000
0100
0010
0100
0001
,
1000
0000
0001
1000
1000
0100
0010
0001
,
1000
0000
0100
0010
0001
0000
0010
0000
0100
0000
0010
0000
0001
0000
0000
0000
,
1000
0000
0001
0100
0010
0000
1000
0000
0010
0000
0100
0000
0010
0000
0000
0000
,
0110
0100
0100
0001
1000
0000
1001
0001
,
0001
0000
0010
0000
0100
0000
0010
0000
0100
0000
0010
0000
0100
0010
0100
1000
,
0001
0000
0000
0000
1000
0000
0010
1000
0010
0000
1000
0001
1000
0000
0001
0000
,
0100
0000
0000
0000
0001
0000
1000
0001
1000
0000
0001
0010
0001
0000
0010
0000
,
0100
0000
0000
0000
1000
0000
0001
0010
0001
0000
1000
0100
0010
0000
0001
0000
,
1000
0000
1000
0001
0010
0100
0010
0001
,
1000
1000
0010
0010
0100
0100
0001
1000
,
0010
0100
0010
0100
0001
1000
1001
0000
,
0101
1001
1000
0100
1000
0000
1100
1001
,
0001
0000
0100
0000
0001
0000
1000
0000
0010
0000
0100
0000
0001
1000
0001
0000
,
0000
0101
0000
1001
0000
1100
0000
0110
,
0000
0011
0000
0110
0000
1100
0101
0000
,
2002
3003
0000
0000
;
