#TITLE:華爛漫 (Flowers);
#SUBTITLE:;
#ARTIST:TËЯRA;
#TITLETRANSLIT:HANA RANMAN (Flowers);
#SUBTITLETRANSLIT:;
#ARTISTTRANSLIT:TERRA;
#GENRE:;
#CREDIT:;
#MUSIC:HANA RANMAN (Flowers).mp3;
#BANNER:HANA RANMAN (Flowers).png;
#BACKGROUND:HANA RANMAN (Flowers)-bg.png;
#CDTITLE:;
#SAMPLESTART:85.874;
#SAMPLELENGTH:13.000;
#SELECTABLE:YES;
#OFFSET:1.071;
#BPMS:0.000=160.000;
#STOPS:164.000=1.127;
#BGCHANGES:;
#FGCHANGES:;

//--------------- dance-single - HellKiteChaos ----------------
#NOTES:
     dance-single:
     HellKiteChaos:
     Challenge:
     15:
     0,0,0,0,0:
0000
0000
0000
0000
,
0000
0000
0000
0000
,
0000
0000
0000
0000
,
0000
0000
0000
0000
,
0000
0000
0000
0000
,
1000
0001
0010
0001
1000
0010
0100
0001
,
1000
0100
0110
0000
,
0001
0010
0100
1000
0010
0100
0001
1000
,
0010
0000
0000
0000
0100
0000
0000
0000
0001
0000
1000
0001
1000
0000
0100
0010
,
0001
0000
0010
0000
0001
0000
1000
0000
0001
0000
0100
0001
0100
0000
0001
0000
,
1000
0000
0001
0010
0001
0000
0010
0000
0100
0000
1000
0000
0001
0000
0000
0000
,
0100
0000
0010
1000
0010
0000
1000
0000
0100
0000
0010
0001
0010
0000
0100
0000
,
1000
0000
0001
1000
0001
0000
0100
0000
0002
2003
3200
0320
0032
2003
3200
0320
,
0031
0000
1000
0100
1000
0000
0001
0000
1000
0000
0010
1000
0010
0000
0100
0000
,
0001
0000
0100
0001
0100
0000
0001
0000
1000
0000
0100
0000
0110
0000
0000
0000
,
0010
0000
0001
0010
0001
0000
0010
0000
0100
0000
1000
0001
1000
0000
0001
0000
,
0100
0000
0010
1000
0010
0000
0100
0000
0001
0000
1000
0001
1000
0000
0001
1000
,
0100
0010
0011
0001
1000
0100
1100
1000
,
0001
0100
0010
1000
1100
0000
0101
0000
,
0001
1000
1001
0001
0100
0010
1010
1000
,
0100
0000
0010
0000
0011
0000
0001
0000
1000
0100
0000
0000
1100
0000
0100
1000
,
0001
0100
0101
0001
1000
0010
0110
0100
,
0001
1000
1100
0100
0010
0001
0000
0001
,
0100
0000
0010
0000
1000
0000
0000
0000
0010
0000
0100
0000
0001
1000
0001
1000
,
0100
0110
2001
3001
,
0101
0001
0100
0010
0110
0010
0100
0001
,
0101
0000
0000
1000
0100
0000
0100
0000
0110
0000
0000
0000
0010
0000
0100
0000
,
1100
1000
0100
0010
0110
0100
1000
0100
,
1100
0000
0000
0001
0100
0000
0010
0000
1000
0000
0010
0100
0001
0000
0010
0100
,
1000
0100
1000
0001
0101
0100
0001
1000
,
1100
0000
0000
0010
0001
0000
0100
0000
0110
0000
0010
0000
1000
0000
0001
0000
,
0011
0010
0001
1000
1010
0010
0100
0010
,
0110
0000
0000
0100
0010
0000
1000
0000
0001
0000
0000
0000
1000
0001
1000
0001
,
2000
0000
3200
0000
,
0320
0000
0000
0000
,
0032
0000
0203
0320
,
2030
0000
0000
0000
0000
0000
3001
1000
,
0001
0001
0100
0001
1000
1000
0100
1000
,
0001
0100
0010
1000
1100
0000
0010
0001
,
1000
1000
0010
1000
0001
0001
0010
0100
,
1000
0000
0010
0000
0100
0000
0001
0000
1000
0000
0000
0000
0001
1000
0001
1000
,
0002
0003
0000
0000
2000
0000
0001
0000
0000
0000
0001
0000
0000
0000
0100
0000
,
0000
0000
0100
0000
3100
0000
0000
0010
0100
0000
0010
0000
0001
0000
0100
0000
,
1000
0100
0002
1000
0000
1000
0000
0100
,
0100
0103
0100
0000
0010
0100
0001
0000
,
0101
0000
0010
1000
0100
0000
1000
0000
0010
0000
0100
0000
0010
0000
1000
0000
,
0100
0000
0010
0000
0110
0000
0000
0001
1000
0000
0010
0100
0010
0000
0100
0000
,
0001
0000
0100
0000
0201
0000
0000
0000
0310
0000
1000
0000
1100
0000
0100
1000
,
0100
1000
0100
1000
0100
0000
0000
0010
0001
0000
1000
0000
0002
0000
0000
0000
,
1003
1000
1001
0001
0100
0001
0101
0100
,
0010
0000
1000
0000
1010
0000
1000
0001
0100
0000
0001
0100
0001
0000
1000
0000
,
0001
0100
0101
0001
1000
0010
1010
1000
,
0001
0000
1000
0000
1100
0000
0010
0001
1000
0000
0001
0000
0100
0000
0010
0100
,
0010
0100
0010
1000
0001
0000
1000
0000
0100
0000
0010
0001
0010
0000
0100
0000
,
1000
0000
0001
0100
0001
0000
0000
0100
0010
0000
1000
0000
0002
0000
0000
0000
,
0103
0000
0010
0000
1010
0000
1000
0010
1000
0000
0001
0000
0101
0000
0100
0001
,
0100
0000
0001
0000
1000
0001
1000
0001
1000
0100
1000
0100
1000
0001
1000
0001
,
0100
0010
1000
0001
0100
0000
0010
0000
1000
0000
1000
0000
0100
0000
0100
0000
,
0010
0001
1000
0001
0001
0100
0100
0010
,
1000
0100
1000
0010
0010
0100
0100
0010
,
0100
0001
2001
0000
3200
0000
0310
0001
,
1000
0001
1000
0001
0100
0000
0010
0000
0010
0000
1000
0000
1000
0000
0001
0000
,
0010
1000
0010
0001
0001
1000
1000
0010
,
0100
0010
1000
0001
0001
0100
0100
0010
,
0100
0000
0001
0000
1000
0000
0001
0000
0100
0000
0001
0000
1000
0001
1000
0001
,
1000
0100
0010
0001
1000
0000
0000
0000
0002
0000
0203
0000
2300
0000
3200
0000
,
0302
0023
2030
3020
0032
0203
0320
0000
,
0000
0030
0000
0000
;
