#TITLE:AA;
#SUBTITLE:;
#ARTIST:D.J.Amuro;
#TITLETRANSLIT:;
#SUBTITLETRANSLIT:;
#ARTISTTRANSLIT:;
#GENRE:;
#CREDIT:;
#MUSIC:AA.mp3;
#BANNER:AA.png;
#BACKGROUND:AA-bg.png;
#CDTITLE:;
#SAMPLESTART:12.500;
#SAMPLELENGTH:15.000;
#SELECTABLE:YES;
#OFFSET:-0.057;
#BPMS:0.000=154.000;
#STOPS:;
#BGCHANGES:;
#FGCHANGES:;

//--------------- dance-single - HellKiteChaos ----------------
#NOTES:
     dance-single:
     HellKiteChaos:
     Challenge:
     16:
     0,0,0,0,0:
0000
0000
0000
0000
,
0000
0000
0000
0000
,
0000
0000
0000
0000
,
0000
0000
0000
0000
,
1000
0010
0110
0100
0001
0100
0101
0001
,
1000
0100
1100
1000
0001
0010
0110
0100
,
1000
0001
1001
0001
1000
0001
0101
0100
,
0001
1000
0001
1000
0001
1000
0001
1000
0010
0100
0010
0100
0010
0100
0010
0100
,
0001
0000
0100
0000
0010
0000
0100
0000
0001
0000
0000
1000
0100
0000
0100
0000
,
0010
0000
0000
0001
0100
0000
0100
0000
0010
0000
0000
1000
0100
0000
0100
0000
,
0010
0000
0001
0000
1000
0000
0001
0000
0100
0000
0000
0010
1000
0000
0000
0001
,
0100
0000
0000
0010
1000
0000
0000
0001
0100
0000
0001
0000
1000
0000
0100
0000
,
0010
0000
0000
0001
0010
0000
0010
0000
0100
0000
0000
1000
0100
0000
0100
0000
,
0001
0000
0000
0100
1000
0000
1000
0000
0001
0000
0000
0100
0010
0000
0010
0000
,
1000
0100
1000
0010
0100
0001
0010
0001
,
0100
0100
0010
0110
,
0010
1000
0000
0010
0000
0100
0001
0100
0001
0000
1000
0100
0000
0000
0010
0100
,
0010
0001
0000
1000
0000
0010
0100
0001
1000
0001
1000
0001
0100
0001
0100
0010
,
1000
0010
0000
1000
0000
0010
0100
0000
0001
0000
1000
0100
0000
0010
0001
0000
,
1000
0001
0000
0001
0000
1000
0001
1000
0100
0010
0000
0010
0000
0001
0000
1000
,
0010
1000
0000
0010
0000
0000
0100
0010
0100
0000
0010
1000
0000
0000
1000
0100
,
0010
0001
0000
0001
0000
1000
0100
1000
0001
0010
0000
0100
0000
0010
0100
1000
,
0001
1000
0000
0001
0000
0100
0010
0000
0010
0000
1000
0100
0000
0010
0001
0000
,
1000
0100
0010
0001
1000
0001
0010
0100
1000
0001
0100
0010
1000
0001
1000
0100
,
0010
0000
0000
0000
0000
0000
0000
0000
0000
0000
0000
0000
0001
0010
0001
0010
,
0001
0000
0000
0000
0000
0000
0100
0100
,
0100
0000
0000
0001
0000
0000
1000
0000
0000
0000
0001
0000
0000
0000
0100
0010
,
1000
0000
0000
0001
0000
0100
0000
0010
,
0000
0000
1000
0000
0000
0000
0100
0000
0000
0000
0010
0000
0000
0000
0001
1000
,
0100
0000
0000
0100
0010
0001
0100
0010
,
0000
1000
0000
0100
0000
0000
0000
0010
,
0001
1000
0100
0010
0001
1000
0001
1000
0010
1000
0001
0100
0010
1000
0001
1000
,
0200
0000
0000
0300
,
0010
0001
0010
0001
1000
0010
1000
0010
1000
0100
1000
0100
0010
0001
0010
0001
,
1000
0010
1000
0010
0100
0001
0100
0001
1000
0100
1000
0100
0010
0000
0010
0000
,
0001
1000
0001
1000
0010
1000
0010
1000
0001
0100
0001
0100
0010
0100
0010
0100
,
0001
1000
0001
1000
0100
1000
0100
1000
0001
0010
0100
1000
0001
0000
0000
0000
,
1000
0010
1000
0010
1000
0100
1000
0100
1000
0010
1000
0001
1000
0010
1000
0100
,
0010
0001
0010
0001
1000
0001
0100
0001
0010
0001
1000
0001
0010
0001
0100
0001
,
1000
0100
1000
0001
0100
0001
0100
0001
1000
0010
0100
0010
1000
0010
1000
0001
,
0100
0010
0100
0010
1000
0001
1000
0001
1000
0010
1000
0100
0010
0001
0100
0010
,
0100
0001
0000
0100
0000
0010
1000
0010
1000
0000
0001
0010
0000
0000
0100
0010
,
0100
1000
0000
0001
0000
0100
0010
1000
0001
1000
0000
0001
0000
1000
0010
0100
,
0001
0100
0000
0001
0000
0100
0010
0000
1000
0000
0001
0010
0000
0100
1000
0000
,
0001
1000
0000
1000
0000
0001
1000
0001
0010
0100
0000
0100
0000
1000
0000
0001
,
0100
0001
0000
0100
0000
0000
0010
0100
0010
0000
0010
1000
0000
0000
0001
0010
,
0100
1000
0000
1000
0000
0001
0010
0001
1000
0100
0000
0010
0000
0100
0010
0001
,
1000
0001
0000
1000
0000
0010
0100
0000
0100
0000
0001
0010
0000
0100
1000
0000
,
0001
0010
0100
1000
0001
1000
0100
0010
0001
1000
0010
0100
0001
1000
0001
0010
,
0100
0000
1000
0000
1100
0000
0100
1000
0100
1000
0001
0100
0001
0100
0010
0000
,
1000
0000
0010
0000
1010
0000
1000
0010
0100
0001
0100
0001
0010
0001
0010
0000
,
0001
0000
1000
0000
1100
0000
0100
1000
0001
1000
0001
0100
0001
0100
0010
0000
,
1000
0000
0100
0000
0010
0000
0001
0000
1000
0010
0100
0001
0100
0001
0100
0001
,
1000
0000
0001
1000
0001
0000
1000
0010
0100
0001
0100
0001
0010
0001
0010
0100
,
1000
0000
0001
0010
0001
0000
1000
0100
1000
0100
0010
0001
0010
0001
1000
0010
,
0100
0000
0001
0100
0001
0000
1000
0010
1000
0010
0100
0001
0010
0100
1000
0001
,
0100
0001
1000
0100
1000
0001
0010
0001
1000
0010
0100
0001
0010
0100
1000
0001
,
2000
0000
3000
0000
;
