#TITLE:gentle stress (AMD SEXUAL MIX);
#SUBTITLE:;
#ARTIST:MR.DOG feat. DJ SWAN;
#TITLETRANSLIT:;
#SUBTITLETRANSLIT:;
#ARTISTTRANSLIT:;
#GENRE:;
#CREDIT:;
#MUSIC:gentle stress (AMD SEXUAL MIX).mp3;
#BANNER:gentle stress (AMD SEXUAL MIX).png;
#BACKGROUND:gentle stress (AMD SEXUAL MIX)-bg.png;
#CDTITLE:;
#SAMPLESTART:0.000;
#SAMPLELENGTH:0.000;
#SELECTABLE:YES;
#OFFSET:-0.413;
#BPMS:0.000=160.000
,126.500=164.000
,127.500=160.000
,128.000=159.000
,129.000=160.000
,144.000=162.000
,145.000=160.000
,158.000=155.000
,161.000=162.000
,164.000=155.000
,165.000=160.000
,191.000=163.000
,192.000=160.000
,215.000=167.000
,216.000=160.000
;
#STOPS:;
#DISPLAYBPM:160.000;
#BGCHANGES:;
#FGCHANGES:;

//--------------- dance-single - HellKiteChaos ----------------
#NOTES:
     dance-single:
     HellKiteChaos:
     Challenge:
     13:
     0,0,0,0,0:
0000
0000
0000
0000
,
0000
0000
0000
0000
,
0000
0000
0000
0000
,
0000
0000
0000
0000
,
1000
0000
0100
0000
0011
0000
0000
0001
0000
0000
0101
0000
0100
0000
0100
0000
,
0110
0000
0000
1000
0001
0000
0100
0000
0100
0000
0010
0000
0010
0000
0100
0000
,
0100
0000
0100
0000
0101
0000
0000
0001
0000
0000
1001
0000
0000
0000
2200
0000
,
0000
0000
0000
3300
,
1001
0000
0001
0000
0100
0000
0000
0010
0000
0000
0200
0000
0000
0000
0301
0000
,
2000
0000
0000
0000
3200
0000
0010
0000
0000
0000
0310
0000
0001
1000
0001
1000
,
0100
0000
0100
0000
0011
0000
0000
0100
0000
0000
1100
0000
0000
0000
1000
0000
,
0101
0000
0000
0000
0010
0000
1100
0000
0000
0000
0010
0000
0001
0100
0001
0100
,
0010
0000
0100
0000
0010
0000
0000
1000
0000
0000
0100
0000
1000
0000
0001
1000
,
0002
0000
0000
0000
0203
0000
0010
0000
0000
0000
0310
0000
0010
2000
0000
0000
,
3100
0000
0100
0000
0010
0000
0000
0001
0000
0000
1001
0000
1000
0000
0001
0000
,
0020
0000
0000
0000
0100
0000
0000
0100
0000
0000
0100
0000
0030
0000
0000
0000
,
1001
0000
1000
0000
0010
0000
0000
0100
0000
0000
0020
0000
0000
0000
1030
0000
,
0002
0000
0000
0000
0023
0000
0100
0000
0000
0000
0130
0000
1000
0001
1000
0001
,
0010
0000
0010
0000
1100
0000
0000
0010
0000
0000
0011
0000
0000
0000
0001
0000
,
1010
0000
0000
0000
0100
0000
0011
0000
0000
0000
0001
0000
1000
0010
1000
0010
,
0100
0000
0010
0000
0100
0000
0000
0001
0000
0000
0010
0000
0001
0000
1000
0001
,
2000
0000
0000
0000
3020
0000
0100
0000
0000
0000
0130
0000
0100
0002
0000
0000
,
0013
0000
0010
0000
0100
0000
0000
1000
0000
0000
1001
0000
0001
0000
1000
0000
,
0200
0000
0000
0300
,
0011
1000
0100
0010
0011
1000
0100
0010
,
0011
1000
0100
0010
0000
0001
0100
0100
,
0101
0010
1000
0001
0101
0010
1000
0001
,
0101
0000
0010
0000
1000
0000
0001
0000
0000
0000
0100
0000
0010
0100
0010
0100
,
0001
0000
1200
1000
0000
0002
0000
0003
,
2000
0000
0000
0000
3000
0000
0320
0000
0000
0000
0000
0000
0031
0000
1000
0001
,
1000
0010
0100
0001
1010
0100
0001
1000
,
0000
0000
0010
0000
0000
0100
0000
0010
,
1010
0001
0100
0010
1010
0001
0100
0010
,
1010
0001
0100
0010
0000
1000
1000
1000
,
1100
0010
0001
1000
1100
0010
0001
1000
,
1100
0000
0010
0000
0001
0000
1000
0000
0000
0000
0100
0000
0010
0000
0010
0001
,
1000
0000
0102
0100
0000
2000
0000
3000
,
0020
0000
0000
0000
0030
0000
0203
0000
0000
0000
0000
0000
0310
0100
0010
0100
,
0010
1000
0001
0100
0010
1000
0001
0100
,
0010
0100
0110
0110
0110
0000
0000
0000
,
0000
0000
0000
0000
0010
0000
0000
1000
0000
0010
1000
0000
0100
0000
0000
0000
,
0010
0000
0000
0000
0001
0000
0000
0010
0000
0001
0100
0000
0001
0000
1000
0000
,
1000
0000
0000
0000
0100
0000
0000
1000
0000
0010
1000
0000
0001
0000
0000
0000
,
0100
0010
0100
0101
0000
0100
1010
1000
,
0010
0000
0000
0000
1000
0000
0000
0001
0000
1000
0100
0000
1000
0000
0000
0000
,
0001
0000
0000
0000
0010
0000
0000
0001
0000
1000
0001
0000
1000
0000
0000
0000
,
0001
0100
0010
0100
0001
1000
0100
0010
0100
1000
0001
0100
,
0010
0000
0000
0010
0100
0000
0010
0000
0100
0000
0000
0000
0110
0000
0000
0000
,
0101
0010
1000
0001
0101
0010
1000
0001
,
0101
0010
1000
0001
0000
1000
0001
1000
,
1100
0010
0001
1000
1100
0010
0001
1000
,
1100
0000
0010
0000
0001
0000
1000
0000
0000
0000
0100
0000
1000
0001
1000
0000
,
0001
0000
0201
0001
0000
0020
0000
0030
,
2000
0000
3000
0020
0300
0000
1030
0000
,
0001
0010
0100
1000
0100
0010
0001
1001
,
1001
1000
0010
0100
0001
0100
0010
0110
,
0110
1000
0001
0100
1010
0001
1000
0100
,
0011
0001
1001
1000
1100
0100
0220
0330
,
2002
0000
0000
0000
,
3003
0000
0000
0000
;

//--------------- dance-double - HellKiteChaos ----------------
#NOTES:
     dance-double:
     HellKiteChaos:
     Challenge:
     13:
     0,0,0,0,0:
00000000
00000000
00000000
00000000
,
00000000
00000000
00000000
00000000
,
00000000
00000000
00000000
00000000
,
00000000
00000000
00000000
00000000
,
00001000
00000000
00010000
00000000
00010100
00000000
00000000
00010000
00000000
00000000
00000100
00000000
00001000
00000000
00000100
00000000
,
00000110
00000000
00000010
00000001
00000001
00001000
00001000
00000100
,
00000100
00000000
00000100
00000000
00000110
00000000
00000000
00000001
00000000
00000000
00001001
00000000
00000000
00000000
00022000
00000000
,
00000000
00000000
00000000
00033000
,
10010000
00000000
00010000
00000000
01000000
00000000
00000000
00100000
00000000
00000000
02000000
00000000
00000000
00000000
03010000
00000000
,
20000000
00000000
00000000
00000000
32000000
00000000
00100000
00000000
00000000
00000000
03100000
00000000
00010000
10000000
00010000
10000000
,
00010000
00100000
00001000
00000000
00010000
00010100
00000000
00000100
,
00000110
00000000
00000000
00000000
00000100
00000000
00000011
00000000
00000000
00000000
00000001
00000000
00001000
00000010
00001000
00000010
,
00000100
00000000
00000010
00000000
00000100
00000000
00000000
00000001
00000000
00000000
00000010
00000000
00000001
00000000
00001000
00000001
,
00002000
00000000
00000000
00000000
00003020
00000000
00010000
00000000
00000000
00000000
00010000
00000000
00010030
00002000
00000000
00000000
,
01003000
00000000
01000000
00000000
00100000
00000000
00000000
01000000
00000000
00000000
10010000
00000000
10000000
00000000
00010000
00000000
,
00200000
00000000
00000000
00000000
01000000
00000000
00000000
01000000
00000000
00000000
01000000
00000000
00300000
00000000
00000000
00000000
,
10010000
00000000
00010000
00000000
00100000
00000000
00000000
01000000
00000000
00000000
00200000
00000000
00000000
00000000
00301000
00000000
,
00020000
00000000
00000000
00000000
00030020
00000000
00001000
00000000
00000000
00000000
00001030
00000000
00000010
00001000
00000010
00001000
,
00000001
00000000
00000100
00000000
00000101
00000000
00000000
00000001
00000000
00000000
00001001
00000000
00000000
00000000
00001000
00000000
,
00000100
00000000
00000000
00000000
00000010
00000000
00001001
00000000
00000000
00000000
00001000
00000000
00000010
00001000
00000010
00001000
,
00000010
00000000
00010000
00000000
00000100
00000000
00000000
00010000
00000000
00000000
00001000
00000000
00100000
00000000
01000000
10000000
,
00020000
00000000
00000000
00000000
00230000
00000000
01000000
00000000
00000000
00000000
01300000
00000000
01000000
20000000
00000000
00000000
,
30100000
00000000
00100000
00000000
01000000
00000000
00000000
00010000
00000000
00000000
10010000
00000000
00010000
00000000
10000000
00000000
,
02000000
00000000
00000000
03000000
,
20000000
01000000
00010000
31000000
00020000
01000000
10000000
01030000
,
20000000
01000000
00010000
32000000
00000000
03010000
00001000
00000010
,
00000002
00000010
00001000
00000013
00002000
00000010
00000001
00003010
,
00000002
00000000
00000010
00000000
00001000
00000000
00000023
00000000
00000000
00000000
00000130
00000000
00001000
00000100
00001000
00000100
,
00000010
00000000
00000002
00000000
00000000
00000203
00000000
00000000
,
00000320
00000000
00000000
00000000
00000000
00000000
00002030
00000000
00000000
00000000
00000000
00000000
00003100
00000000
00000010
00000001
,
00001000
00000100
00010000
00001000
00100000
00010000
10000000
01000000
,
00100000
00000000
00100000
00000000
00000000
00100000
00000000
00100000
,
00002000
00100000
00010000
00103000
00200000
00001000
00010000
00301000
,
00002000
00100000
00010000
00203000
00000000
00310000
00100000
00001000
,
00020000
00000010
00001000
00030010
00000020
00010000
00001000
00010030
,
00020000
00000000
00000010
00000000
00001000
00000000
00030020
00000000
00000000
00000000
00000130
00000000
00000001
00001000
00000001
00000000
,
00001000
00000000
00000200
00000000
00000000
00020300
00000000
00000000
,
00032000
00000000
00000000
00000000
00000000
00000000
02003000
00000000
00000000
00000000
00000000
00000000
03100000
01000000
00100000
01000000
,
00100000
10000000
00010000
00100000
01000000
00010000
00001000
00010000
,
00000100
00001000
00001100
00001100
00001100
00000000
00000000
00000000
,
00000000
00000000
00000000
00000000
00000010
00000000
00000000
00000001
00000000
00000010
00000001
00000000
00000100
00000000
00000000
00000000
,
00000010
00000000
00000000
00000000
00001000
00000000
00000000
00000010
00000000
00001000
00000100
00000000
00001000
00000000
00000001
00000000
,
00000001
00000000
00000000
00000000
00000100
00000000
00000000
00000001
00000000
00000010
00000001
00000000
00001000
00000000
00000000
00000000
,
00000100
00010000
01000000
00100000
00000000
01000000
00100000
01000000
,
10000000
00000000
00000000
00000000
10000000
00000000
00000000
00010000
00000000
10000000
00100000
00000000
01000000
00000000
00000000
00000000
,
00010000
00000000
00000000
00000000
00100000
00000000
00000000
00010000
00000000
10000000
00010000
00000000
10000000
00000000
00000000
00000000
,
00010000
00100000
01000000
10000000
00100000
01000000
00010000
00100000
01000000
10000000
00010000
01000000
,
00100000
00000000
00000000
00100000
01000000
00000000
00100000
00000000
01000000
00000000
00000000
00000000
01100000
00000000
00000000
00000000
,
02000000
00010000
00100000
03010000
00020000
10000000
01000000
10030000
,
20000000
00010000
00100000
30020000
00000000
10030000
01000000
00100000
,
00020000
00100000
10000000
00130000
00200000
00001000
00010000
00301000
,
00002000
00000000
00010000
00000000
00100000
00000000
00023000
00000000
00000000
00000000
00030100
00000000
00010000
00000100
00010000
00000000
,
00000010
00000000
00001020
00001000
00000000
00000200
00000000
00000300
,
00000002
00000000
00000003
00000200
00000030
00000000
00000302
00000000
,
00001003
00000100
00000001
00000100
00001000
00000010
00000100
00001000
,
00010000
00100000
10000000
00100000
00010000
00100000
01000000
00010000
,
00100000
01000000
00010000
10000000
00100000
01000000
10000000
00100000
,
01000000
00010000
01000000
10000000
02000000
00000000
03020000
00000000
,
20030000
00000000
00000000
00000000
,
30000000
00000000
00000000
00000000
;
