#TITLE:era (nostalmix);
#SUBTITLE:;
#ARTIST:TaQ;
#TITLETRANSLIT:;
#SUBTITLETRANSLIT:;
#ARTISTTRANSLIT:;
#GENRE:Dance Dance Revolution 4th Mix,Dancing Stage Euromix 2;
#CREDIT:;
#MUSIC:era (nostalmix).mp3;
#BANNER:era (nostalmix).png;
#BACKGROUND:era (nostalmix)-bg.png;
#CDTITLE:;
#SAMPLESTART:0.000;
#SAMPLELENGTH:0.000;
#SELECTABLE:YES;
#OFFSET:-1.202;
#BPMS:0.000=180.000
,124.000=90.000
,156.000=180.000
,220.000=90.000
;
#STOPS:;
#DISPLAYBPM:90.000:180.000;
#BGCHANGES:;
#FGCHANGES:;

//--------------- dance-single - HellKiteChaos ----------------
#NOTES:
     dance-single:
     HellKiteChaos:
     Hard:
     12:
     0,0,0,0,0:
0000
0000
0000
0000
,
0000
0000
0000
0000
,
0000
0000
0000
0000
,
1000
0001
0000
0100
0000
0010
1000
0000
,
0000
0001
0000
1000
0100
0000
1000
0000
,
0001
0010
0000
0001
0000
1000
0100
0000
,
0000
1000
0010
0000
0100
0001
1001
0000
,
0001
0000
1000
0200
0000
1300
0100
0100
,
1000
0000
0001
0200
0000
0301
0100
0100
,
0001
0000
1000
0020
0000
1030
0010
0010
,
1000
0000
0001
0020
0000
0031
0010
0010
,
0100
0000
1000
0002
0000
0103
0001
0001
,
1000
0000
0001
0020
0000
0130
1000
1000
,
0001
0000
0100
0020
0000
1030
0001
0001
,
0100
0001
1001
0000
1000
0100
1001
0000
,
0001
0010
0002
1000
0000
0100
0000
0023
,
0000
0130
1000
0001
1000
0001
1000
0010
,
0100
0001
2000
0001
0000
0100
0000
3020
,
0000
0130
0010
0100
0001
1000
0010
1000
,
0001
0010
0200
1000
0000
0010
0000
2300
,
0000
3001
0010
1000
0010
0100
1000
0001
,
1000
0010
1010
0000
0100
0001
0101
0000
,
0100
0000
0100
0000
0001
0000
0001
0000
1000
0000
0001
1000
0001
0000
0100
0000
,
0010
0010
1000
0100
0000
0110
0000
0011
,
0000
0001
0100
0001
0010
0100
0010
0100
,
1000
0001
0100
0010
0000
1010
0000
0101
,
0000
0100
0001
1000
0100
0010
0100
1000
,
0001
0001
0010
0110
0000
1100
0000
1001
,
0000
1000
0001
0100
0001
0100
1000
0100
,
0001
1000
0100
1100
0000
1001
0000
0101
,
0100
0010
0100
0010
1000
0100
0010
0001
,
2000
0000
0100
0000
0010
0010
0010
0000
,
3100
0000
0002
0000
0100
0100
0100
0000
,
2003
0000
0010
0000
0100
0100
0100
0000
,
3010
0000
0002
0000
1000
1000
1003
0000
,
1000
0010
0100
0020
2030
3001
0100
0002
,
0023
0000
0130
0000
0010
0000
0002
0000
2003
0000
3010
0000
0100
0001
0200
0000
,
0320
1030
0001
0200
0320
1030
0001
0200
,
0320
1030
0001
2000
0002
0000
3003
0000
,
1000
0001
1000
0001
0000
0100
0010
0100
,
0001
1000
0001
1000
0000
0100
0010
0100
,
1000
0001
1000
0001
0000
0100
0010
0100
,
0001
1000
0100
0010
0001
1000
0100
0010
,
0001
1000
0001
0100
0000
0001
1000
0001
,
1000
0100
0010
0100
0000
1000
0001
1000
,
0010
0100
0010
1000
0000
0001
1000
0001
,
0010
0100
0010
0001
1000
0100
0010
0000
,
0001
1000
0010
1000
0100
0010
0012
0000
,
1003
0010
0100
0010
1000
0001
2001
0000
,
3100
0010
0001
0010
0100
1000
1002
0000
,
0103
0010
1000
0001
0100
0010
2010
0000
,
3001
0010
0100
0010
0100
1000
2100
0000
,
3001
0100
0001
0100
0010
1000
1002
0000
,
0013
0001
0010
0001
1000
0010
0201
0000
,
0310
1000
0001
0100
0010
1000
0001
1000
,
0200
0000
0000
0000
,
0000
0020
0000
0000
,
0000
0330
0000
0000
;

//--------------- dance-single - HellKiteChaos ----------------
#NOTES:
     dance-single:
     HellKiteChaos:
     Challenge:
     15:
     0,0,0,0,0:
0000
0000
0000
0000
,
0000
0000
0000
0000
,
0000
0000
0000
0000
,
1000
0100
1000
0001
1000
0010
1000
0001
,
1000
0100
0010
0001
0000
1000
0000
0001
,
0100
0001
1000
0001
0010
0100
1000
0010
,
0100
0001
0000
1000
0000
0010
0100
0010
,
1000
0000
0001
0101
0000
0100
0010
0100
,
0110
0000
0010
1010
0000
1000
0001
1000
,
1100
0000
0100
0110
0000
0010
0001
1000
,
1001
0000
0001
0101
0000
0100
0010
1000
,
0010
1000
0001
1001
0000
1000
0001
0100
,
0101
0000
0001
1001
0000
1000
0100
0010
,
0001
0000
1000
0001
0100
0000
0010
0000
0000
0000
0110
0000
0000
0000
0010
1000
,
0010
0000
1000
0000
0001
0000
0100
0000
0010
1000
0010
1000
0010
1000
0001
1000
,
0001
0000
1000
0000
0001
0000
0010
0000
0100
0000
0010
0100
0010
0000
0001
0000
,
1000
0000
0001
0000
0100
0000
0010
0100
0010
0000
1000
0000
0001
0000
1000
0000
,
0001
0000
1000
0001
0010
0000
0100
0000
1000
0100
1000
0000
0001
0000
0010
0000
,
0100
0000
1000
0001
0010
0000
0100
0000
1000
0000
0001
0100
0001
0100
0001
0100
,
0001
0000
0100
0010
1000
0000
0010
0000
1000
0000
0001
1000
0001
0000
0100
0000
,
0010
0000
0010
1000
0001
0000
1000
0000
0100
0000
0010
0001
0010
0001
0010
0000
,
0001
0000
1000
0100
0010
0000
0001
0000
1000
0001
0100
0000
0010
0000
1000
0000
,
0001
0000
0100
0000
0100
0000
0000
0000
0000
0000
0010
0100
0010
0100
0010
1000
,
0001
0000
0001
0000
0100
0000
0010
1000
0001
0000
0100
0000
0001
0100
0001
1000
,
0001
0000
1000
0000
1000
0000
0100
1000
0001
0000
1000
0000
0100
0010
0001
1000
,
0001
0000
0010
0000
0010
0000
0100
1000
0001
0000
1000
0000
0001
0100
0001
0100
,
0010
0000
1000
0000
1000
0000
0001
1000
0001
0000
0100
0000
0010
1000
0001
0100
,
0010
0000
1000
0000
0100
0000
0010
0001
0010
0000
0001
0000
1000
0001
1000
0001
,
0100
0000
0010
0000
1000
0000
0001
0100
0010
0000
1000
0000
0001
1000
0001
1000
,
0001
0000
1000
0000
0100
0000
1000
0100
1000
0000
0100
0000
0010
0001
1000
0001
,
1000
0000
0010
0000
0010
0000
0100
0001
0100
0000
0010
1000
0010
1000
0001
0100
,
0010
0000
0010
0000
0100
0000
0010
0100
0001
1000
0010
0000
0120
0000
0130
0001
,
1000
0000
1000
0000
2001
0000
3001
0010
0100
1000
0100
0010
0001
1000
0100
0010
,
0001
0000
0001
0000
1001
0000
1000
0010
0100
0000
0100
0000
0101
0000
0000
0000
,
0001
0000
1000
0000
1001
0000
1000
0010
1000
0001
0100
0010
1000
0100
0010
0001
,
1000
0000
0000
0000
0100
0000
0000
0000
1100
0000
0000
0000
1000
0000
0100
0010
0001
0000
1000
0000
0001
0000
1000
0000
1001
0000
0000
0000
0001
0000
0000
0000
,
0100
0000
0000
0000
0100
0000
0000
0000
0010
0000
0000
0000
1000
0000
0001
0100
0010
0000
0100
0000
0010
0000
1000
0000
1001
0000
0000
0000
0001
0000
0000
0000
,
1000
0000
0000
0000
1000
0000
0000
0000
0100
0000
0000
0000
0010
0000
0001
1000
0100
0000
1000
0000
0001
0000
1000
0000
1100
0000
0000
0000
0100
0000
0000
0000
,
0010
0000
0001
0000
1000
0000
0001
0000
0100
0010
1000
0001
2000
0000
0000
0000
,
3001
0000
0100
0000
0001
0000
1000
0000
0100
0000
0010
0001
0010
0000
0010
0001
,
1000
0000
0001
0000
0100
0000
0001
0000
1000
0000
0010
1000
0010
0000
0010
1000
,
0001
0000
1000
0000
0001
0000
1000
0000
0100
0000
1000
0100
1000
0000
1000
0100
,
0010
0000
0001
0000
1000
0000
0100
0000
1000
0000
0001
0000
1000
0001
1000
0001
,
1000
0000
0001
0000
0100
0000
0001
0000
1000
0000
0010
1000
0010
0000
0010
1000
,
0100
0000
1000
0000
0100
0000
1000
0000
0001
0000
0010
0001
0010
0000
0010
0001
,
0100
0000
0010
0000
0100
0000
0010
0000
1000
0000
0001
1000
0001
0000
0100
0010
,
0100
0000
0100
0000
0001
0000
0001
0000
1000
0010
0100
0001
1000
0010
0100
0001
,
1000
0000
0100
0000
0010
0000
0001
0000
1000
0000
0001
1000
0001
0000
0100
0001
,
1000
0000
0100
0000
1000
0000
0001
0000
0010
0000
0001
1000
0001
0000
0100
0010
,
1000
0000
0010
0000
1000
0000
0001
0000
0100
0000
0010
1000
0010
0000
1000
0001
,
0010
0000
0100
0000
0010
0000
0100
0000
1000
0000
0001
0010
0001
0000
1000
0100
,
0001
0000
0100
0000
1000
0000
0100
0000
0010
0000
0001
1000
0001
0000
1000
0010
,
0001
0000
0010
0000
1000
0000
0010
0000
0100
0000
0001
1000
0001
0000
1000
0100
,
0001
0000
0100
0000
1000
0000
0100
0000
0010
0000
0001
1000
0001
0000
1000
0010
,
0001
0000
0001
0010
1000
0000
1000
0001
0010
0000
0010
0001
1000
0100
0010
0001
,
2000
0000
0000
0000
,
0000
0200
0000
0000
,
0000
3300
0000
0000
;

//--------------- dance-double - HellKiteChaos ----------------
#NOTES:
     dance-double:
     HellKiteChaos:
     Challenge:
     14:
     0,0,0,0,0:
00000000
00000000
00000000
00000000
,
00000000
00000000
00000000
00000000
,
00000000
00000000
00000000
00000000
,
00001000
01000000
00000000
00100000
00000000
00100000
10000000
00000000
,
00000000
00010000
00000000
10000000
01000000
00100000
00010000
01000000
,
00001000
00010000
00000000
00001000
00000000
00000100
00000000
00000010
,
00000000
00000100
00000001
00000100
00000010
00001000
00000001
00000000
,
00001000
00000001
00000100
00000010
00001000
00000200
00000000
00000000
,
00000000
00000000
00000010
00000000
00000000
00000010
00000000
00000310
,
00000001
00000100
00001000
00010000
00100000
02000000
00000000
00000000
,
00000000
00000000
00100000
00000000
00000000
00100000
00000000
03100000
,
10000000
00100000
00010000
00001000
00000100
00000020
00000000
00000100
,
00000000
00000130
00000010
00000100
00000010
00010000
00000000
00001000
,
00010000
01000000
10000000
01000000
00100000
00010000
10000000
00000000
,
00010000
10000000
00010000
00000000
00000000
00000000
01000000
00000000
00100000
00000000
01000000
00000000
00010000
01000000
00010000
00000000
,
01000000
00001000
01000000
00000100
01000000
00001000
01000000
00010000
,
01000000
00001000
01000000
00000100
01000000
00001000
00010000
00000000
,
00000100
00010000
00000100
01000000
00000100
00010000
00000100
00001000
,
00000100
00000000
00010000
00000000
00000100
00000000
01000000
00000000
00000100
00000000
00010000
00000000
00001000
00010000
00001000
00000000
,
00010000
00000010
00010000
00000100
00010000
00001000
00010000
00000100
,
00010000
00000010
00010000
00000001
00010000
00000010
00010000
00000100
,
00010000
00001000
01000000
00001000
01000000
00100000
01000000
00100000
,
10000000
01000000
00100000
00010000
01000000
00000000
00000000
00000000
,
00100000
01000000
00100000
00010000
00100000
01000000
00100000
10000000
,
00100000
01000000
00100000
00001000
00100000
01000000
00010000
10000000
,
00001000
00010000
00001000
00010000
00000100
00010000
00001000
10000000
,
00001000
00010000
00000100
00010000
00001000
00100000
00100000
00000000
,
00010000
00100000
00001000
00010000
00000001
00010000
00001000
00010000
,
00000010
00010000
00001000
00010000
00000001
00010000
00001000
00010000
,
00001000
10000000
00001000
00010000
00001000
00010000
00000001
00001000
,
00000010
00000100
00000010
00000000
00000100
00000100
00000100
00000000
,
00000001
00000100
00000010
00001000
00000100
00010000
00011000
00000000
,
00001000
00000000
00200000
01000000
00010000
01000000
00320000
10030000
,
10000000
00100000
00010000
00001000
00000100
00000001
00000101
00000000
,
00000100
00000000
00000020
00001000
00000100
00001000
00000230
00000000
,
00000301
00000000
00000100
00000000
00000101
00000000
00000100
00000010
00001000
00000000
00000010
00000000
00001010
00000000
00001000
00000000
,
00000010
00000000
00010000
00000000
00011000
00000000
00001000
01000000
00010000
00000000
01000000
00000000
01010000
00000000
00010000
00000000
,
10000000
00000000
00100000
00000000
10100000
00000000
10000000
01000000
00100000
00000000
00010000
00000000
00110000
00000000
00100000
00000000
,
00001000
00010000
00011000
00010000
00000200
00000000
00000000
00000000
,
00000310
00000001
00000010
00000001
00000100
00001000
00000200
00000000
,
00000310
00010000
00000010
00010000
00000100
01000000
00020000
00000000
,
10030000
00100000
10000000
00100000
01000000
00010000
02000000
00000000
,
03100000
10000000
01000000
00100000
00010000
01000000
10010000
00000000
,
00010000
10000000
00001000
00010000
00000100
00010000
00002000
00000000
,
01003000
00001000
00100000
00001000
10000000
00001000
00020000
00000000
,
00031000
00010000
00000010
00010000
00000001
00010000
00002000
00000000
,
00013000
00000100
00000010
00000001
00000100
00000010
00001001
00000000
,
00000001
00000100
00000001
00001000
00000001
00010000
00000001
00001000
,
00000010
00010000
00000001
00010000
00000010
00010000
00001000
00010000
,
00001000
10000000
00001000
01000000
00001000
00100000
00010000
10000000
,
01000000
00100000
01000000
00010000
01000000
00001000
01000000
00010000
,
01000000
00100000
00010000
01000000
00100000
10000000
01000000
00100000
,
00010000
01000000
00001000
01000000
10000000
01000000
00001000
01000000
,
00010000
00100000
01000000
10000000
00100000
01000000
00001000
00010000
,
00000100
01000000
00001000
00010000
00000010
00100000
00001000
00010000
,
00022000
00000000
00000000
00000000
,
00033000
02000200
00000000
00000000
,
00000000
03000300
00000000
00000000
;
