#TITLE:Why not;
#SUBTITLE:;
#ARTIST:Darwin;
#TITLETRANSLIT:;
#SUBTITLETRANSLIT:;
#ARTISTTRANSLIT:;
#GENRE:;
#CREDIT:;
#MUSIC:Why not.mp3;
#BANNER:Why not.png;
#BACKGROUND:Why not-bg.png;
#CDTITLE:./CDTITLES/DanceDanceRevolution SuperNOVA2.png;
#SAMPLESTART:22.640;
#SAMPLELENGTH:15.000;
#SELECTABLE:YES;
#OFFSET:-0.056;
#BPMS:0.000=175.000;
#STOPS:;
#BGCHANGES:;
#FGCHANGES:;

//--------------- dance-single - HellKiteChaos ----------------
#NOTES:
     dance-single:
     HellKiteChaos:
     Challenge:
     14:
     0,0,0,0,0:
0000
0000
0000
0000
,
1000
0010
0100
0001
1000
0020
0000
0130
,
0001
1000
0010
1000
0001
2000
0000
3100
,
0010
0100
0010
0001
1000
0200
0000
0310
,
0100
1000
0001
0100
0010
1000
0100
0100
,
0100
1000
0001
1000
0010
0200
0000
0301
,
1000
0001
0010
0100
1000
0020
0000
0130
,
0001
1000
0010
0100
0001
2000
0000
3001
,
0200
0000
0000
0000
0310
0000
0000
0000
0110
0000
0000
0100
0001
0000
1000
0010
,
0100
0010
0100
0001
1000
0020
1000
1030
,
1000
0001
0100
0010
1000
0200
0010
0310
,
0010
0001
1000
0100
1000
0002
1000
1003
,
0001
0100
0001
0100
0010
1000
0010
1000
,
0001
0100
0010
0100
0001
2000
0001
3001
,
0001
0010
0100
0010
0001
0200
0010
0310
,
0010
1000
0001
0100
0010
1000
0100
0010
,
0220
0000
0330
0110
,
0010
0010
0001
1000
0001
0100
0010
1000
,
0100
0000
1100
0000
0100
0010
0001
0100
,
0001
0000
0101
0000
0100
0010
1000
0001
,
0012
0000
0103
0000
2010
0000
3010
0100
,
0100
0000
0010
0010
0100
0001
1000
0001
,
0011
0000
0100
0100
1000
0001
1000
0010
,
1010
0000
0100
0001
1000
0010
0100
0001
,
0021
0000
0130
0000
2100
0000
3010
0100
,
0001
0000
0021
0000
1000
0000
0031
0100
,
0010
0000
1020
0000
0001
0000
1030
0100
,
0010
0001
0100
0001
0010
0100
1000
0001
,
0200
0000
0320
0000
2030
0000
3001
0100
,
0010
0000
1020
0000
0001
0000
1030
0100
,
0010
0000
0021
0000
1000
0000
0031
0100
,
0010
1000
0100
0010
0001
0100
0010
2000
,
0002
0000
0000
3003
,
1000
0000
0001
0100
0000
0001
0100
0000
0010
0000
1000
0000
0100
0000
1000
0000
,
0010
0000
1000
0100
0000
1000
0100
0000
1000
0000
0001
0000
0010
0000
0000
0000
,
0001
0000
1000
0100
0000
1000
0100
0000
0010
0000
0001
0000
1000
0000
0010
0000
,
0100
0000
0001
1000
0000
0001
1000
0000
0010
0000
0100
0000
0001
0000
0000
0000
,
1000
0000
0010
0100
0000
0010
0001
0000
0010
0000
1000
0000
0001
0000
0010
0000
,
0100
0000
0010
1000
0000
0010
0100
0000
1000
0000
0010
0000
0100
0000
0000
0000
,
0010
0000
0100
1000
0000
0100
0010
0000
1000
0000
0001
0000
0010
0000
0100
0000
,
0010
0000
0100
0001
0000
0100
0010
0000
0001
0000
1000
0000
0001
0000
0100
0000
,
0010
0000
1000
0001
0000
1000
0001
0000
0001
0000
0100
0000
0001
0000
1000
0000
,
0100
0000
0010
0001
0000
1000
0100
0000
0100
0000
0010
0000
0100
0000
0010
0000
,
0001
0000
1000
0001
0000
0100
0001
0000
0001
0000
1000
0000
0010
0000
1000
0000
,
0001
0000
0100
0010
0000
1000
0001
0000
0001
0000
0010
0000
0100
0000
1000
0000
,
0001
0000
1000
0100
0000
1000
0001
0000
0001
0000
0100
0000
0001
0000
0010
0000
,
0100
0000
1000
0001
0000
0100
0010
0000
0010
0000
1000
0000
0001
0000
0100
0000
,
0010
1000
0100
0010
0001
0100
0010
1000
,
0001
1000
0001
1000
1001
0000
1001
0000
,
0002
0000
0203
0000
0301
0000
0010
0100
,
2000
0000
3002
0000
0103
0000
0010
1000
,
0002
0000
0203
0000
0310
1000
0100
1000
,
1010
1010
1100
1001
,
0101
0000
0002
0000
0013
0001
0100
0001
,
2000
0000
3002
0000
1003
0100
1000
0010
,
2000
0000
3002
0000
0103
0010
1000
0100
,
0110
0000
0000
0000
0110
0000
0000
0000
1001
0000
0000
0001
1000
0000
0001
1000
,
0001
0100
0001
0100
0010
1000
0002
0000
,
1003
0100
1000
0100
0010
0001
2000
0000
,
3001
0100
1000
0100
0001
0100
1000
0100
,
0101
0000
1100
0000
0101
0000
0011
0010
,
0200
0000
1300
0100
1000
0010
1000
0001
,
2001
0000
3001
0100
0001
0010
0001
1000
,
0001
0001
0100
0100
0010
1000
0100
0010
,
0001
0000
1000
0000
0100
0010
0001
2000
,
0002
0000
0000
0000
,
3003
0000
0000
0000
;

//--------------- dance-double - HellKiteChaos ----------------
#NOTES:
     dance-double:
     HellKiteChaos:
     Challenge:
     14:
     0,0,0,0,0:
00000000
00000000
00000000
00000000
,
00001000
00010000
00001000
00100000
00010000
02000000
00000000
03100000
,
10000000
01000000
00010000
01000000
00100000
00020000
00000000
00130000
,
00001000
00010000
00000100
00001000
00000010
00000200
00000000
00000310
,
00000100
00000001
00000010
00001000
00010000
00001000
00001000
00001000
,
00010000
01000000
00100000
01000000
10000000
00020000
00000000
01030000
,
00100000
10000000
00100000
00010000
00100000
20000000
00000000
30010000
,
01000000
00001000
00010000
00000100
00000010
00000002
00000000
00001003
,
00000010
00000000
00000000
00000000
00000100
00000000
00000000
00000000
00000001
00000000
00000000
00001000
00000001
00000000
00001000
00000001
,
00000010
00000100
00000010
00000100
00010000
00000200
00010000
00000300
,
00010000
00000100
00010000
00001000
00100000
00020000
10000000
00030000
,
10000000
00100000
01000000
00010000
01000000
20000000
01000000
30000000
,
01000000
00100000
01000000
00001000
00010000
00001000
00000100
00000100
,
00000010
00001000
00000001
00000100
00000010
00001000
00000010
00000010
,
00001000
00000100
00010000
00001000
00100000
00010000
10000000
10000000
,
00100000
01000000
00010000
00100000
01000000
10000000
00010000
00010000
,
20020000
00000000
30030000
00000000
,
10000000
01000000
10000000
01000000
00100000
00010000
01000000
00001000
,
00010000
00000000
00011000
00001000
00010000
00000100
00001000
00000010
,
00001000
00000000
00001010
00000010
00000100
00000010
00001000
00000010
,
00000100
00000000
00000110
00000000
00000101
00000000
00000001
00000100
,
00001000
00000000
00010000
00001000
00100000
00010000
00100000
00001000
,
00010000
00000000
00001000
00010000
00000010
00001000
00000010
00010000
,
00001000
00000000
00010000
01000000
10000000
00100000
00010000
00001000
,
00000010
00000000
00000001
00000000
00001000
00000000
00000100
00000100
,
00000010
00000000
00000021
00000000
00001000
00000000
00000031
00000100
,
00001000
00000000
00021000
00000000
00100000
00000000
00031000
00001000
,
00010000
00001000
00100000
00010000
01000000
00001000
00100000
01000000
,
01100000
00000000
11000000
00000000
01010000
00000000
01000000
00100000
,
10000000
00000000
10200000
00000000
00010000
00000000
10300000
01000000
,
00010000
00000000
00012000
00000000
00000010
00000000
00013000
00001000
,
00010000
00000010
00000100
00001000
00010000
00100000
10000000
00010000
,
20020000
00000000
00000000
30030000
,
10000000
00000000
00100000
01000000
00000000
00100000
01000000
00000000
00010000
00000000
00100000
00000000
00010000
00000000
01000000
00000000
,
00001000
00000000
00010000
00001000
00000000
00010000
00001000
00000000
00010000
00000000
00000100
00000000
00001000
00000000
00000010
00000000
,
00000100
00000000
00000001
00001000
00000000
00000001
00001000
00000000
00000100
00000000
00001000
00000000
00000010
00000000
00001000
00000000
,
00000100
00000000
00010000
00001000
00000000
00010000
00001000
00000000
00010000
00000000
01000000
00000000
00100000
00000000
01000000
00000000
,
00100000
00000000
00010000
10000000
00000000
00010000
10000000
00000000
00100000
00000000
01000000
00000000
00100000
00000000
10000000
00000000
,
00010000
00000000
10000000
00010000
00000000
10000000
00010000
00000000
10000000
00000000
01000000
00000000
00010000
00000000
00001000
00000000
,
00010000
00000000
00001000
00010000
00000000
00001000
00010000
00000000
00001000
00000000
00000100
00000000
00000010
00000000
00001000
00000000
,
00000001
00000000
00001000
00000001
00000000
00001000
00000001
00000000
00001000
00000000
00000100
00000000
00000010
00000000
00000001
00000000
,
00001000
00000000
00000001
00000100
00000000
00000001
00001000
00000000
00000100
00000000
00000010
00000000
00000100
00000000
00010000
00000000
,
00001000
00000000
00010000
00001000
00000000
00100000
00010000
00000000
10000000
00000000
01000000
00000000
10000000
00000000
00100000
00000000
,
01000000
00000000
00010000
01000000
00000000
00010000
10000000
00000000
00100000
00000000
01000000
00000000
00001000
00000000
00010000
00000000
,
00000010
00000000
00000100
00000010
00000000
00000100
00000001
00000000
00001000
00000000
00000100
00000000
00000010
00000000
00000001
00000000
,
00001000
00000000
00000010
00000100
00000000
00000010
00000100
00000000
00001000
00000000
00010000
00000000
00100000
00000000
01000000
00000000
,
00010000
00000000
10000000
00010000
00000000
10000000
00010000
00000000
00100000
00000000
01000000
00000000
10000000
00000000
00010000
00000000
,
01000000
00000000
00001000
00010000
00000000
00001000
00010000
00000000
00001000
00000000
00000100
00000000
00001000
00000000
00010000
00000000
,
00001000
00100000
00001000
00010000
00000010
00000100
00000010
00000100
,
00000001
00000010
00001000
00010000
,
01000000
10000000
00010000
01000000
,
00100000
10000000
01000000
00010000
,
00001000
00010000
00001000
00000010
,
00000001
00001000
00000001
00000100
,
00000010
00010000
00001000
00010000
,
01000000
10000000
01000000
00010000
,
00001000
00000000
00000100
00000000
00001000
00000000
00010000
00001000
,
00010000
00000000
00021000
00000000
01000000
00000000
00031000
00010000
,
00001000
00012000
00000010
00013000
,
00010000
00000010
00000100
00001000
00010000
00001000
00100000
01000000
,
00010000
00000000
00001000
00000000
00000010
00000000
00000001
00000100
,
00000010
00000000
00001020
00000000
00000001
00000000
00001030
00000010
,
00010000
00000000
00021000
00000000
01000000
00000000
00031000
00100000
,
00010000
10000000
00100000
01000000
00001000
00010000
00000100
00000010
,
00000002
00000000
00000000
00000000
,
00002000
00000000
00000000
00000000
,
00003003
00000000
00000000
00000000
;
