#TITLE:WWW.BLONDE GIRL (MOMO MIX);
#SUBTITLE:;
#ARTIST:JENNY ROM;
#TITLETRANSLIT:;
#SUBTITLETRANSLIT:;
#ARTISTTRANSLIT:;
#GENRE:Dance Dance Revolution 6th Mix -Max-,Dancing Stage Euromix 2;
#CREDIT:;
#MUSIC:WWW.BLONDE GIRL (MOMO MIX).mp3;
#BANNER:WWW.BLONDE GIRL (MOMO MIX).png;
#BACKGROUND:WWW.BLONDE GIRL (MOMO MIX)-bg.png;
#CDTITLE:;
#SAMPLESTART:0.000;
#SAMPLELENGTH:0.000;
#SELECTABLE:YES;
#OFFSET:-0.065;
#BPMS:0.000=170.000;
#STOPS:;
#DISPLAYBPM:170.000;
#BGCHANGES:;
#FGCHANGES:;

//--------------- dance-single - HellKiteChaos ----------------
#NOTES:
     dance-single:
     HellKiteChaos:
     Challenge:
     13:
     0,0,0,0,0:
0000
0000
0000
0000
,
0000
0000
0000
0000
,
0000
0000
0000
0000
,
0000
0000
0000
0000
,
0001
1000
0100
0010
0000
0001
1000
0100
,
0010
0110
0100
1001
,
1001
0100
0001
0000
1001
0100
1000
0000
,
1001
0000
1001
0000
0110
1000
0001
1000
,
0110
1001
0101
1001
,
0010
1000
0001
0100
0010
1000
0100
0010
,
0011
0011
0110
1100
,
0001
1000
0100
0010
0110
0000
0110
0000
,
0001
0010
0100
1000
1001
0000
0101
0000
,
1001
0000
0001
0100
0010
1000
0001
0100
,
0101
1010
1001
0110
,
1001
0110
1001
1001
,
1100
0101
1100
0101
,
1010
1100
1010
1100
,
0011
1010
0011
1010
,
0101
0011
0101
0011
,
0101
1001
1100
1001
,
0110
1001
0101
1010
,
1100
0101
1100
0101
,
0110
0000
0110
0000
0010
0100
0010
0100
,
0110
0000
1001
0000
0110
0000
1001
0001
,
0000
1000
0001
0100
0110
0000
0110
0001
,
1000
0100
0001
0100
1000
0100
0001
0100
,
0000
0110
0000
1001
0000
0110
0010
0100
,
0110
0000
1001
0000
1001
0000
0101
0001
,
1000
0010
1000
0010
0110
0000
1001
0001
,
0000
0101
0100
0100
0010
1000
0001
1001
,
0000
1100
1000
1000
0001
0010
0100
1000
,
1001
0011
1100
1001
,
1000
0100
0010
0001
1001
0000
1001
1000
,
0001
0001
0100
0100
0010
0010
1000
1001
,
0000
1001
0000
0110
0000
0110
0100
0010
,
0110
1001
0101
1010
,
1000
0100
0010
0001
1001
0000
1001
0000
,
0101
1100
0101
1100
,
1001
1001
0110
1001
,
0110
1001
0101
1010
,
1000
0100
0010
0001
0011
0000
1100
0000
,
0001
0010
0100
1000
1100
0000
1001
0001
,
0000
0101
0000
1010
0000
1100
0100
1000
,
1100
0011
1100
0011
,
0101
0000
1000
0010
1000
0010
1010
0000
,
0101
0000
1001
0100
0001
0000
1001
0000
,
0110
0000
1001
0100
1000
0000
0110
0100
,
0010
0100
0110
0000
1001
0000
0110
0000
,
1001
0100
0010
0100
1001
0000
1001
0000
,
0101
0000
1100
0000
1010
0000
0011
0001
,
0000
1100
0000
1010
0000
1100
0100
1000
,
1001
0110
1001
0101
,
0011
0000
0101
0000
1000
0001
1001
0000
,
0110
0110
0101
1010
,
1010
1001
0101
0110
0000
0000
0000
0000
;

//--------------- dance-double - HellKiteChaos ----------------
#NOTES:
     dance-double:
     HellKiteChaos:
     Challenge:
     13:
     0,0,0,0,0:
00000000
00000000
00000000
00000000
,
00000000
00000000
00000000
00000000
,
00000000
00000000
00000000
00000000
,
00000000
00000000
00000000
00000000
,
00001000
00010000
00000100
00000010
00000000
00000100
00010000
00001000
,
00010000
00011000
01000000
10010000
,
10010000
01000000
00010000
00000000
10010000
01000000
10000000
00000000
,
10010000
00000000
10010000
00000000
00011000
00000000
00001000
00010000
,
00011000
01001000
00011000
00010100
,
00010000
00000100
00010000
00001000
00100000
00001000
00010000
00000010
,
00001010
00010010
00011000
00101000
,
00100000
00010000
01000000
00100000
01100000
00000000
01100000
00000000
,
00100000
01000000
00010000
10000000
10010000
00000000
01010000
00000000
,
01001000
00000000
00011000
00000000
00010000
00000100
00001000
00000100
,
00000110
00000011
00001100
00000011
,
00000110
00010100
00011000
00011000
,
00101000
00010100
00101000
00010100
,
00011000
10010000
00011000
00001001
,
00011000
01001000
00011000
00010100
,
00011000
00101000
00110000
00101000
,
00011000
01000100
00011000
01000100
,
00011000
00010010
00011000
00101000
,
00011000
00100010
00011000
00100010
,
00011000
00000000
00011000
00000000
00001000
00010000
00001000
00010000
,
00011000
00000000
01001000
00000000
01100000
00000000
10010000
00010000
,
00000000
10000000
00010000
01000000
01100000
00000000
01100000
00010000
,
10000000
01000000
00010000
00001000
00010000
00000010
00000100
00000101
,
00000000
00001010
00000000
00000101
00000000
00001010
00000010
00010000
,
00011000
00000000
01100000
00000000
10010000
00000000
01010000
00010000
,
10000000
00100000
10000000
00100000
01100000
00000000
10010000
00010000
,
00000000
01001000
00001000
00001000
00100000
00010000
00000000
00110000
,
00000000
11000000
10000000
10000000
00010000
00100000
01000000
10000000
,
11000000
01100000
00110000
00101000
,
00001000
00100000
00001000
00010000
00011000
00000000
00011000
00010000
,
00000000
00000100
00001000
00000010
00000100
00000001
00001000
00001001
,
00000000
00000110
00000000
00001001
00000000
00000001
00000100
00000010
,
00001010
00000000
00000101
00000000
00001010
00000000
00000010
00010000
,
00001000
00000100
00000010
00010000
00011000
00000000
01001000
00000000
,
01100000
10100000
01010000
11000000
,
10010000
10010000
00011000
00001001
,
00000110
00001001
00001100
00011000
,
00001000
00100000
01000000
10000000
11000000
00000000
00110000
00100000
,
00000000
00100000
01000000
10000000
01000000
10000000
00010000
01010000
,
00000000
01010000
00000000
10100000
00000000
10010000
00010000
00100000
,
00110000
00000000
00011000
00000000
00001010
00000000
00000110
00000010
,
00000000
00000100
00000010
00001000
00001001
00000000
00001100
00000000
,
00010100
00000000
00011000
00001000
01000000
00000000
10010000
00000000
,
01100000
00000000
10010000
01000000
00100000
00000000
01000000
00100000
,
01100000
10010000
00011000
00001001
,
00000110
00001001
00011000
10010000
,
01010000
00000000
11000000
00000000
10100000
00000000
00110000
00010000
,
00000000
11000000
00000000
10100000
00000000
11000000
01000000
10000000
,
10010000
00011000
00001001
00000101
,
00001010
00000000
00001100
00000000
00010000
00001000
00011000
00000000
,
01001000
01100000
01010000
10100000
,
10000000
01000000
00010000
00100000
00000000
00000000
00000000
00000000
;
