#TITLE:VANITY ANGEL;
#SUBTITLE:;
#ARTIST:FIXX;
#TITLETRANSLIT:;
#SUBTITLETRANSLIT:;
#ARTISTTRANSLIT:;
#GENRE:;
#CREDIT:;
#MUSIC:VANITY ANGEL.mp3;
#BANNER:VANITY ANGEL.png;
#BACKGROUND:VANITY ANGEL-bg.png;
#CDTITLE:;
#SAMPLESTART:0.000;
#SAMPLELENGTH:0.000;
#SELECTABLE:YES;
#OFFSET:-0.258;
#BPMS:0.000=140.000;
#STOPS:;
#DISPLAYBPM:140.000;
#BGCHANGES:;
#FGCHANGES:;

//--------------- dance-single - HellKiteChaos ----------------
#NOTES:
     dance-single:
     HellKiteChaos:
     Challenge:
     14:
     0,0,0,0,0:
0000
0000
0000
0000
,
0000
0000
0000
0000
,
0000
0000
0000
0000
,
0000
0000
0000
0000
,
0001
0100
0000
0010
0000
0100
0010
0000
1000
0001
0000
0000
1000
0000
0001
0000
,
1000
0100
0000
0010
0000
0100
0010
0000
0001
1000
0000
0000
0001
0000
0100
0000
,
0010
1000
0000
0010
0000
0100
0010
0000
1000
0001
0000
1000
0100
0000
0100
0000
,
0010
0001
0000
0010
0000
0001
0010
0000
0100
1000
0000
0100
1000
0000
0001
1000
,
0002
0000
0000
0000
0003
0000
0100
0001
0200
0000
0000
0000
0000
0000
0000
0000
,
0000
0300
0002
0000
0023
0000
0230
0000
,
1300
0000
0100
0000
1000
0001
0000
0100
0001
0000
1000
0000
0100
0000
0000
0000
,
0010
0001
1000
0100
0010
0001
1000
0100
0010
0000
0001
1000
0100
0000
0000
0000
,
0021
0000
0000
0000
0130
0000
1000
0001
0200
0000
0000
0000
0010
0000
0000
0000
,
0001
0320
2030
3002
,
0103
0001
0000
0100
0010
1000
0001
0000
,
0100
0001
1000
0100
0010
0100
0010
0001
,
1000
0100
0000
0100
0000
0100
0000
0100
,
0020
0000
0000
0032
0000
0000
1003
0000
0020
0000
0000
0230
0000
0000
0301
0000
,
1000
0000
0000
0000
0001
0000
0000
0000
0100
0000
0000
0000
0010
0000
0000
0010
,
1000
0000
0000
0000
1000
0000
0000
0000
0002
0000
0000
0203
0000
0000
0310
0000
,
1000
0010
0000
1000
0001
0000
1000
0010
0000
1000
0000
0001
0100
0000
0100
0000
,
0001
0010
0000
0001
1000
0000
0001
0010
0000
0100
0000
1000
0100
0000
0100
0000
,
1000
0001
0000
1000
0010
0000
1000
0001
0000
1000
0000
0001
1000
0000
1000
0000
,
0010
0100
0000
0010
1000
0000
0010
0100
0000
0010
0000
0100
0001
0000
0001
0000
,
1000
0100
0000
0010
0001
0000
1000
0100
0000
0010
0000
0001
1000
0000
1000
0000
,
0001
0100
0000
0010
1000
0000
0001
0100
0000
0010
0000
1000
0001
0000
0001
0000
,
1000
0010
0000
0100
0001
0000
0010
0001
0000
1000
0000
0100
0010
0000
0010
0000
,
0001
0000
1000
0000
0001
0000
1000
0000
0001
0100
0000
0010
1000
0001
0100
0010
,
1000
0000
0001
0000
0001
0100
0000
0100
0010
0000
0010
1000
0000
1000
0000
0001
,
0000
0000
1000
0000
1000
0100
0000
0100
0010
0000
0010
0001
0000
0001
0000
1000
,
0000
0000
0001
0000
0001
0100
0000
0100
0010
0000
0010
1000
0000
1000
0000
0001
,
0000
0000
0010
0000
0010
0100
0000
0100
1000
0000
1000
0001
0000
0001
0000
0100
,
0000
0000
0010
0000
0010
1000
0000
1000
0001
0000
0001
0100
0000
0100
0000
0010
,
0000
0000
0100
0000
0100
0010
0000
0010
1000
0000
1000
0100
0000
0100
0000
0010
,
0000
0000
0100
0000
0100
0010
0000
0010
0001
0000
0001
1000
0000
1000
0000
0001
,
0000
0000
0100
0000
0100
0010
0000
0010
1000
0000
1000
0001
0000
0001
0000
0100
,
0010
0000
0000
0100
0001
0100
0001
0000
1000
0000
0000
0000
0001
0000
0010
0000
,
0001
0000
0000
1000
0100
1000
0100
0000
0010
0000
0000
0000
0001
0000
1000
0000
,
0010
0000
0000
0100
0010
0100
0010
0000
1000
0000
0000
0000
0001
0000
1000
0000
,
0100
0000
0000
0010
0001
0010
0001
0000
1000
0001
0000
0000
1000
0000
0001
0000
,
0100
0001
0100
0001
1000
0010
1000
0010
,
1000
0100
1000
0100
0010
0001
0010
0001
,
1000
0100
1000
0100
0000
0010
0001
0000
1000
0010
1000
0010
0000
0100
0001
0000
,
1000
0010
0000
1000
0000
0010
1000
0000
0001
0100
0000
0001
0000
0100
0001
1000
,
0010
0000
1000
0000
0001
0010
0000
0010
0100
0000
0100
1000
0000
1000
0000
0100
,
0000
0000
0010
0000
0001
1000
0000
1000
0010
0000
0010
0100
0000
0100
0000
0001
,
0000
0000
1000
0000
0001
0100
0000
0100
0010
0000
0010
1000
0000
1000
0000
0100
,
0000
0000
0010
0000
0001
1000
0000
1000
0100
0000
0100
0010
0000
0010
0000
0001
,
0000
0000
1000
0000
0100
0010
0000
0001
1000
0000
0100
0010
0000
0001
0000
1000
,
0000
0000
0010
0000
0100
0001
0000
1000
0010
0000
0100
0001
0000
1000
0000
0010
,
0000
0000
1000
0000
0001
0010
0000
0100
1000
0000
0001
0100
0000
0010
0000
1000
,
0000
0000
0001
0000
1000
0100
0000
0010
0001
0000
1000
0000
0010
0000
0100
0000
,
0220
0000
0000
0000
,
0330
0000
0000
0000
;

//--------------- dance-double - HellKiteChaos ----------------
#NOTES:
     dance-double:
     HellKiteChaos:
     Challenge:
     14:
     0,0,0,0,0:
00000000
00000000
00000000
00000000
,
00000000
00000000
00000000
00000000
,
00000000
00000000
00000000
00000000
,
00000000
00000000
00000000
00000000
,
00001000
00010000
00000000
00100000
00000000
01000000
00100000
00000000
10000000
00010000
00000000
00000000
10000000
00000000
00010000
00000000
,
10000000
01000000
00000000
00100000
00000000
00001000
00010000
00000000
00001000
00010000
00000000
00010000
00000100
00000000
00000010
00000000
,
00000001
00000010
00000000
00000010
00000000
00000100
00000010
00000000
00000001
00001000
00000000
00001000
00000010
00000000
00000100
00000000
,
00000001
00001000
00000000
00001000
00000000
00000100
00000010
00000000
00000001
00001000
00000000
00000010
00000100
00000000
00000001
00001000
,
00000001
00000000
00000000
00000000
00000000
00000000
00001000
00000010
00002000
00000000
00000000
00000000
00000000
00000000
00000000
00000000
,
00000000
00003000
00000200
00000000
00020300
00000000
02030000
00000000
,
13000000
00000000
01000000
00000000
10000000
00010000
00000000
01000000
00010000
00000000
10000000
00000000
01000000
00000000
00000000
00000000
,
00100000
00010000
00100000
00001000
00100000
00001000
00010000
00001000
00010000
00000000
00001000
00000100
00000010
00000000
00000000
00000000
,
00001020
00000000
00000000
00000000
00000130
00000000
00000001
00001000
00000200
00000000
00000000
00000000
00000010
00000000
00000000
00000000
,
00000001
00000320
00000230
00020300
,
00031000
00010000
00000000
00010000
00100000
10000000
00010000
00000000
,
01000000
00000000
00010000
01000000
00010000
01000000
00100000
10000000
00100000
10000000
00010000
00100000
01000000
10000000
00010000
00100000
,
02000000
10000000
00000000
10000000
00000000
10000000
00000000
13000000
,
00200000
00000000
00000000
00320000
00000000
00000000
00130000
00000000
20000000
00000000
00000000
32000000
00000000
00000000
03010000
00000000
,
00001000
00000000
00000000
00000000
00000100
00000000
00000000
00000000
00000010
00000000
00000000
00000000
00001000
00000000
00000000
00000001
,
00001000
00000000
00000000
00000000
00000100
00000000
00000000
00000000
00000020
00000000
00000000
00000032
00000000
00000000
00001003
00000000
,
00000001
00000100
00000000
00000001
00001000
00000000
00000001
00000100
00000000
00000001
00000000
00001000
00000010
00000000
00000010
00000000
,
00001000
00000010
00000000
00010000
00001000
00000000
00010000
00000010
00000000
00001000
00000000
00000100
00010000
00000000
00010000
00000000
,
00001000
01000000
00000000
00010000
00100000
00000000
00001000
01000000
00000000
00100000
00000000
10000000
01000000
00000000
01000000
00000000
,
00100000
01000000
00000000
00100000
00010000
00000000
00100000
01000000
00000000
00100000
00000000
01000000
10000000
00000000
10000000
00000000
,
10000000
01000000
00000000
00100000
00010000
00000000
10000000
01000000
00000000
00100000
00000000
00010000
10000000
00000000
00010000
00000000
,
01000000
00100000
00000000
01000000
00001000
00000000
01000000
00100000
00000000
01000000
00000000
00001000
00010000
00000000
00010000
00000000
,
00000010
00000100
00000000
00000010
00001000
00000000
00000100
00001000
00000000
00000001
00000000
00000010
00000100
00000000
00000100
00000000
,
00001000
00000000
00000001
00000000
00001000
00000000
00000001
00000000
00001000
00000010
00000000
00000100
00000001
00001000
00000010
00000100
,
00000001
00000000
00001000
00000000
00001000
00000100
00000000
00000100
00010000
00000000
00010000
00001000
00000000
00010000
00000000
01000000
,
00000000
00000000
10000000
00000000
10000000
01000000
00000000
01000000
00100000
00000000
00100000
00010000
00000000
00010000
00000000
10000000
,
00000000
00000000
00100000
00000000
00100000
01000000
00000000
01000000
00010000
00000000
00100000
10000000
00000000
00100000
00000000
00010000
,
00000000
00000000
00100000
00000000
00100000
00001000
00000000
00001000
00010000
00000000
00010000
00000100
00000000
00001000
00000000
00000001
,
00000000
00000000
00000100
00000000
00000100
00000001
00000000
00000001
00001000
00000000
00001000
00000010
00000000
00000010
00000000
00000100
,
00000000
00000000
00000100
00000000
00000100
00001000
00000000
00001000
00010000
00000000
00010000
00100000
00000000
01000000
00000000
00100000
,
00000000
00000000
01000000
00000000
01000000
00100000
00000000
00100000
00010000
00000000
00010000
00001000
00000000
00000100
00000000
00000010
,
00000000
00000000
00000010
00000000
00000100
00000001
00000000
00000001
00001000
00000000
00001000
00000100
00000000
00001000
00000000
00000100
,
00010000
00000000
00000000
00001000
00010000
00000000
00001000
00000000
01000000
00000000
00000000
00000000
00100000
00000000
01000000
00000000
,
00100000
00000000
00000000
10000000
01000000
00000000
00100000
00000000
00010000
00000000
00000000
00000000
00100000
00000000
00001000
00000000
,
00010000
00000000
00000000
01000000
00100000
00000000
00010000
00000000
10000000
00000000
00000000
00000000
00100000
00000000
01000000
00000000
,
00010000
00000000
00000000
00100000
00010000
00100000
00010000
00000000
10000000
00010000
00000000
00000000
10000000
00000000
00010000
00000000
,
01000000
00010000
01000000
00010000
10000000
00100000
10000000
00100000
,
10000000
01000000
10000000
01000000
00100000
00001000
00100000
00001000
,
00010000
00001000
00010000
00001000
00000000
00010000
00000100
00000000
00000010
00000001
00000010
00000001
00000000
00001000
00000100
00000000
,
00010000
00001000
00010000
00000000
00001000
01000000
00001000
00000000
01000000
00100000
00000000
00100000
10000000
00100000
10000000
00100000
,
10000000
00000000
10000000
00000000
00010000
00100000
00000000
00100000
01000000
00000000
01000000
10000000
00000000
10000000
00000000
01000000
,
00000000
00000000
00100000
00000000
00100000
00001000
00000000
00001000
00010000
00000000
00010000
00000010
00000000
00000010
00000000
00000100
,
00000000
00000000
00000010
00000000
00000010
00000100
00000000
00000100
00000001
00000000
00000001
00001000
00000000
00001000
00000000
00000100
,
00000000
00000000
00000010
00000000
00000100
00001000
00000000
00001000
00000100
00000000
00000100
00010000
00000000
00010000
00000000
00001000
,
00000000
00000000
01000000
00000000
00100000
10000000
00000000
10000000
01000000
00000000
00100000
00001000
00000000
00010000
00000000
00000010
,
00000000
00000000
00000100
00000000
00000001
00001000
00000000
00000100
00010000
00000000
00001000
00100000
00000000
01000000
00000000
10000000
,
00000000
00000000
00100000
00000000
10000000
00010000
00000000
01000000
00001000
00000000
00010000
00000010
00000000
00000100
00000000
00000001
,
00000000
00000000
00000001
00000000
00000000
00000010
00000000
00000000
00000100
00000000
00000000
00010000
00001000
00000000
00010000
00000000
,
00022000
00000000
00000000
00000000
,
00033000
00000000
00000000
00000000
;
