#TITLE:TWILIGHT ZONE (R-C Extended Club MIX);
#SUBTITLE:;
#ARTIST:2 UNLIMITED;
#TITLETRANSLIT:;
#SUBTITLETRANSLIT:;
#ARTISTTRANSLIT:;
#GENRE:;
#CREDIT:;
#MUSIC:TWILIGHT ZONE (R-C Extended Club MIX).mp3;
#BANNER:TWILIGHT ZONE (R-C Extended Club MIX).png;
#BACKGROUND:TWILIGHT ZONE (R-C Extended Club MIX)-bg.png;
#CDTITLE:;
#SAMPLESTART:0.000;
#SAMPLELENGTH:0.000;
#SELECTABLE:YES;
#OFFSET:-1.762;
#BPMS:0.000=138.010;
#STOPS:;
#DISPLAYBPM:138.000;
#BGCHANGES:;
#FGCHANGES:;

//--------------- dance-single - HellKiteChaos ----------------
#NOTES:
     dance-single:
     HellKiteChaos:
     Challenge:
     14:
     0,0,0,0,0:
0000
0000
0000
0000
,
0000
0000
0000
0000
,
0000
0000
0000
0000
,
0000
0000
0000
0000
,
0001
0100
0000
0001
0100
0000
0001
0100
0000
0001
0100
0000
0001
0000
0010
0000
,
0100
1000
0000
0100
1000
0000
0100
1000
0000
0100
1000
0000
0001
0000
0100
0000
,
0010
1000
0000
0010
1000
0000
0010
1000
0000
0010
1000
0000
0001
0000
1000
0000
,
0100
0000
0010
0000
0001
0000
1000
0001
0000
0000
0000
0000
1001
0000
0000
0000
,
1000
0000
0001
0000
0100
0000
0010
1000
0000
0001
0100
0000
0010
1000
0001
0000
,
1000
0000
0100
0000
0010
0000
0001
1000
0000
0001
0100
0000
0010
1000
0001
0000
,
1000
0000
0001
0000
0010
0000
0100
1000
0000
0001
0100
0000
0010
1000
0001
0000
,
1000
0100
0010
0002
0000
2003
0000
3100
,
0010
0000
0001
0000
0100
0000
0010
1000
0000
0100
0010
0000
0001
1000
0001
0000
,
0100
0000
0010
0000
1000
0000
0001
0010
0000
0100
1000
0000
0001
1000
0001
0000
,
0100
0000
0010
0000
1000
0000
0001
0100
0000
0010
1000
0000
0001
1000
0001
0000
,
1000
0100
0010
0002
0000
0203
0000
0310
,
1000
0000
0001
0100
0001
0000
1000
0000
0001
0100
0001
0000
2000
0000
0100
0000
,
3100
0000
0010
0001
0010
0000
0100
0000
0010
0001
0010
0001
2000
0000
0000
0000
,
3010
0000
0100
0001
0100
0000
0010
0000
1000
0010
1000
0000
0001
0000
1000
0001
,
0100
0000
0001
0100
1000
0100
0001
0100
1000
0000
0100
0000
0110
0000
0000
0000
,
0100
0000
0001
0000
0101
0000
0001
1000
0000
0010
0100
0000
0001
0010
0100
1000
,
0001
0000
0010
0000
0011
0000
1000
0100
0000
0010
0001
0000
1000
0010
0100
0001
,
1000
0000
0010
0000
1010
0000
0100
0001
0000
1000
0010
0000
0100
0001
1000
0100
,
0010
0010
0010
0002
0000
2003
0000
3100
,
0010
0000
0001
0000
0011
0000
1000
0100
0000
0010
0001
0000
1000
0001
1000
0001
,
0100
0000
0010
0000
1010
0000
0001
0100
0000
0010
1000
0000
0001
1000
0001
1000
,
0100
0000
0010
0000
0011
0000
1000
0001
0000
0100
0010
0000
1000
0001
0100
0010
,
1000
1000
1000
0002
0000
0203
0000
0310
,
1000
0100
0000
1000
0001
0000
1000
0010
0000
1000
0100
0000
0010
0001
1000
0001
,
0100
0001
0000
1000
0001
0000
0010
0001
0000
0100
0001
0000
1000
0100
0010
0001
,
0100
0010
0000
0100
1000
0000
0100
0010
0000
0100
0001
0000
1000
0010
0100
0001
,
1000
0001
0100
0020
0000
2030
0000
3001
,
0100
0000
0010
0000
0110
0000
0100
0001
0100
0010
0100
0000
0001
0000
1000
0000
,
0100
0000
0010
0000
0110
0000
0100
0010
0100
1000
0100
0000
0010
0000
0001
0000
,
1000
0100
1100
1000
0001
0010
0011
0001
,
2000
0000
0000
0010
0000
0000
0010
0000
0000
0001
0000
0000
0100
0000
0100
0000
,
3100
0010
0001
0010
0100
0000
1000
0000
1100
0000
0001
0000
0101
0000
1000
0000
,
0010
0100
0001
0100
0010
0000
1000
0000
0101
0000
1000
0000
1100
0000
0001
0000
,
0010
0001
1000
0001
0010
0000
0100
0000
1000
0100
0010
0100
1000
0000
2002
0000
,
0000
0000
0000
3003
,
1000
0100
0000
1000
0010
0000
1000
0100
0000
1000
0010
0000
1000
0100
0010
0001
,
0100
0001
0000
0100
0010
0000
0100
0001
0000
0100
0010
0000
0100
0001
1000
0100
,
0010
0001
0000
0010
0100
0000
0010
0001
0000
0010
0100
0000
1000
0001
0010
0100
,
1000
0001
0100
0020
0000
2030
0000
3001
,
0100
0100
0000
0001
0001
0000
1000
1000
0000
0010
0010
0000
0100
0001
1000
0001
,
0010
0010
0000
0100
0100
0000
1000
1000
0000
0001
0001
0000
0010
0100
1000
0001
,
0100
0100
0000
0010
0010
0000
0100
0100
0000
0010
0010
0000
0100
0010
1000
0001
,
0100
0000
0010
0000
0100
0000
0002
2000
0000
0000
0000
0000
3003
0000
0000
0000
;

//--------------- dance-double - HellKiteChaos ----------------
#NOTES:
     dance-double:
     HellKiteChaos:
     Challenge:
     13:
     0,0,0,0,0:
00000000
00000000
00000000
00000000
,
00000000
00000000
00000000
00000000
,
00000000
00000000
00000000
00000000
,
00000000
00000000
00000000
00000000
,
00001000
00010000
00000000
00001000
00010000
00000000
00001000
00010000
00000000
00001000
00010000
00000000
00001000
00000000
00010000
00000000
,
00000010
00000100
00000000
00000010
00000100
00000000
00000010
00000100
00000000
00000010
00000100
00000000
00000010
00000000
00000100
00000000
,
00000001
00001000
00000000
00000001
00001000
00000000
00000001
00001000
00000000
00000001
00001000
00000000
00000001
00000000
00001000
00000000
,
00001001
00000000
00001000
00000000
00001000
00000000
00001000
00000001
00000000
00000000
00000000
00000000
00001001
00000000
00000000
00000000
,
00000001
00000100
00001000
00010000
00000100
00010000
00100000
10000000
,
00010000
10000000
01000000
00010000
00001000
01000000
00001000
00000010
,
00000001
00000100
00001000
00010000
00000100
00010000
00100000
10000000
,
00010000
00000000
10000000
00000000
00010000
00000000
00100000
01000000
00000000
00000000
00000000
00000000
00000000
00000000
00000000
00000000
,
10000000
01000000
00010000
00001000
01000000
00001000
00000010
00000001
,
00000100
00001000
00010000
00000100
00010000
00100000
10000000
00010000
,
10000000
01000000
00010000
00001000
01000000
00001000
00000010
00000001
,
00001000
00000000
00000001
00000000
00001000
00000000
00000010
00000100
00000000
00000000
00000000
00000000
00000000
00000000
00000000
00000000
,
00000010
00000000
00000100
00000001
00000100
00000000
00000010
00000000
00000100
00000001
00000100
00000000
00000010
00000000
00001000
00000010
,
00010000
00000000
00001000
00100000
00001000
00000000
00010000
00000000
00001000
00100000
00001000
00000000
00010000
00000000
00000000
00000000
,
00001000
00000000
01000000
00010000
01000000
00000000
00001000
00000000
01000000
00010000
01000000
00000000
00100000
00000000
10000000
00100000
,
01000000
00000000
00100000
01000000
00010000
01000000
00100000
01000000
00010000
00000000
00010000
00000000
00010000
00000000
00000000
00000000
,
10000000
00000000
01000000
00000000
00010000
00000000
00001000
01000000
00000000
00001000
00000010
00000000
00000001
00000000
00000100
00000000
,
00001000
00000000
00010000
00000000
00000100
00000000
00010000
00100000
00000000
10000000
01000000
00000000
00010000
00000000
00001000
00000000
,
01000000
00000000
00001000
00000000
00000010
00000000
00000001
00000100
00000000
00001000
00010000
00000000
00001000
00000000
00010000
00000000
,
00001000
00000000
00000100
00000000
00000001
00000000
00000010
00000100
00000000
00000000
00000000
00000000
00000000
00000000
00000000
00000000
,
00000100
00000000
00001000
00000000
00000010
00000000
00000100
00000000
00001000
00000000
00010000
00000000
00100000
01000000
00100000
00000000
,
10000000
00000000
00010000
00000000
00100000
00000000
01000000
00000000
00010000
00000000
00001000
00000000
00000010
00000100
00000010
00000000
,
00000001
00000000
00001000
00000000
00000100
00000000
00000010
00000000
00001000
00000000
00010000
00000000
01000000
00100000
01000000
00000000
,
10000000
00000000
00010000
00000000
01000000
00000000
00100000
10000000
00000000
00000000
00000000
00000000
00000000
00000000
00000000
00000000
,
10000000
00100000
00000000
10000000
00010000
00000000
10000000
01000000
00000000
00100000
00010000
00000000
20010000
00000000
30000000
00000000
,
00001000
00010000
00000000
00001000
00100000
00000000
00001000
01000000
00000000
00001000
00010000
00000000
00021000
00000000
00030000
00000000
,
00000001
00000010
00000000
00000001
00001000
00000000
00000001
00000100
00000000
00000010
00001000
00000000
00002001
00000000
00003000
00000000
,
00000001
00000000
00001000
00000000
00000001
00000000
00000100
00000010
00000000
00000000
00000100
00000000
00000100
00000000
00000100
00000000
,
00000010
00000100
00000001
00000100
00000010
00001000
00000100
00000010
,
00000001
00000010
00001000
00000010
00000001
00000100
00001000
00010000
,
00100000
10000000
00100000
00010000
00100000
01000000
00100000
10000000
,
00020000
00000000
00000000
02030000
00000000
00000000
03000200
00000000
00000000
00020300
00000000
00000000
00031000
00000000
00001000
00000000
,
00010000
00000000
00100000
00000000
10000000
00100000
10000000
00000000
00010000
00000000
10000000
00000000
01000000
00000000
00010000
00000000
,
00001000
00000000
00000010
00000000
00000001
00000010
00000001
00000000
00001000
00000000
00000001
00000000
00000100
00000000
00001000
00000000
,
00010000
01000000
10000000
01000000
00010000
00001000
00000100
00000002
,
00000000
00000000
00000000
00002000
00000000
00000000
00003003
00000000
,
00000001
00000010
00001000
00010000
00000010
00010000
01000000
10000000
,
00100000
00010000
00001000
00100000
00001000
00000100
00000001
00000010
,
00001000
00010000
00000010
00010000
01000000
10000000
00100000
01000000
,
00010000
00000000
10000000
00000000
00010000
00000000
01000000
00100000
00000000
00000000
00000000
00000000
00000000
00000000
00000000
00000000
,
10000000
10000000
00000000
00010000
00010000
00000000
01000000
01000000
00000000
00100000
00100000
00000000
10000000
00000000
01000000
00000000
,
00100000
00100000
00000000
00001000
00001000
00000000
00010000
00010000
00000000
00000100
00000100
00000000
00000010
00000000
00000001
00000000
,
00001000
00001000
00000000
00000010
00000010
00000000
00010000
00010000
00000000
00001000
00001000
00000000
00010000
00000000
00001000
00000000
,
01000000
00000000
00100000
00000000
10000000
00000000
00020000
20000000
00000000
00000000
00000000
00000000
30030000
00000000
00000000
00000000
;
