#TITLE:TSUGARU;
#SUBTITLE:;
#ARTIST:RevenG vs DE-SIRE;
#TITLETRANSLIT:;
#SUBTITLETRANSLIT:;
#ARTISTTRANSLIT:;
#GENRE:Dance Dance Revolution 7th Mix -Max2-,Dancing Stage Euromix 2;
#CREDIT:;
#MUSIC:TSUGARU.mp3;
#BANNER:TSUGARU.png;
#BACKGROUND:TSUGARU-bg.png;
#CDTITLE:;
#SAMPLESTART:0.000;
#SAMPLELENGTH:0.000;
#SELECTABLE:YES;
#OFFSET:-1.859;
#BPMS:0.000=165.000
,229.000=157.000
,233.000=131.000
,237.000=123.000
,238.000=130.000
,239.000=109.000
,240.000=94.000
;
#STOPS:15.500=0.727;
#DISPLAYBPM:165.000;
#BGCHANGES:;
#FGCHANGES:;

//--------------- dance-single - HellKiteChaos ----------------
#NOTES:
     dance-single:
     HellKiteChaos:
     Challenge:
     14:
     0,0,0,0,0:
0000
0000
0000
0000
,
0000
0000
0000
0000
,
0000
0000
0000
0000
,
0000
0000
0000
0000
0000
0000
0000
0000
0000
0000
0000
0000
0000
0000
2002
3003
,
0000
0000
0000
0000
0000
0000
1000
0000
0100
0000
0010
0000
0001
0010
0001
0000
,
0011
0000
0000
0000
0000
0000
0010
0000
0001
0000
1000
0000
0001
0100
0001
0000
,
0101
0000
0000
0000
0000
0000
1000
0000
1000
0000
0010
0000
0100
0010
0100
0000
,
0110
0010
1000
0100
0100
0010
0001
0001
,
1001
0000
1001
0000
0000
0000
1000
0000
0100
0000
0100
0000
0010
0001
0010
0000
,
0011
0000
0000
0000
0000
0000
0001
0000
0100
0000
0010
0000
1000
0010
1000
0000
,
1010
0000
0000
0000
0000
0000
1000
0000
0001
0000
0100
0000
0001
1000
0001
0000
,
1001
1000
1100
0100
0100
0010
0001
0001
,
1001
0000
1001
0000
0000
0000
1000
0000
0001
1000
0100
0000
0010
0000
0100
1000
,
0001
0000
0000
0000
0000
0000
1000
0000
0010
0100
0001
0000
1000
0000
0001
0100
,
0010
0000
0000
0000
1000
0000
0010
0100
1000
0000
0100
0000
1000
0100
0010
0000
,
1000
0001
1001
0001
0001
0010
0100
0100
,
1100
0000
1100
0000
0000
0000
1000
0000
0001
0010
0100
0000
1000
0000
0100
0010
,
0001
0000
1000
0000
1000
0000
0001
0000
1000
0010
0100
0000
0001
0000
0100
0010
,
1000
0000
0001
0000
0001
0000
1000
0000
0001
1000
0100
0000
1000
0000
0100
1000
,
0001
0100
0101
0001
0001
1001
1000
1000
,
0001
1000
0002
2000
0000
0000
0000
0000
0000
0000
0000
0000
0000
0000
0000
0000
,
0000
0000
0000
0000
,
0000
0000
0000
0000
,
3003
0000
0000
0001
0000
1000
0010
0000
0100
0001
0000
0000
,
1010
0000
0000
0101
0000
0001
0010
0000
0100
1000
0000
0000
,
0011
0000
0000
1100
0000
1000
0001
0000
0100
0010
0000
1000
,
0001
0000
1000
0100
0000
0010
0001
0000
1000
0010
0000
0100
,
0001
0000
1000
0100
0000
0010
0001
0000
0010
0001
0000
0000
,
0011
0000
0000
1100
0000
0001
0100
0000
0001
0100
0000
0000
,
1010
0000
0000
0101
0000
1000
0100
0000
1000
0100
0000
0010
,
0001
0000
1000
0010
0000
1000
0001
0000
1000
0100
0000
0010
,
0001
0000
0000
0000
1000
0000
0001
0000
0000
0000
1000
0001
1000
0000
0000
0000
0001
0000
0100
0000
0000
0000
0001
0100
,
0001
0000
0000
0000
1000
0000
0010
0000
0000
0000
1000
0010
1000
0000
0000
0000
0001
0000
0010
0000
0000
0000
0001
0010
,
0001
0000
0000
0000
1000
0000
0001
0000
0000
0000
1000
0001
1000
0000
0000
0000
0100
0000
0010
0000
0000
0000
0100
0010
,
0100
0000
0010
0001
0000
1000
0100
0000
0010
0001
0000
1000
,
0100
0000
0010
0001
0100
1000
0100
0001
0010
0100
0000
0000
,
0000
0000
0000
1000
0010
0001
0010
1000
0100
0010
0000
0000
,
0000
0000
0000
0001
0100
1000
0100
0001
1000
0100
0001
0100
,
1000
0001
0100
1000
0100
0001
1000
0100
0010
0001
0000
0000
,
0000
0000
0000
0000
1000
0000
0001
1000
0001
0000
0100
0000
0010
1000
0010
0000
,
1000
0001
1000
1000
0100
0100
0010
0001
,
1000
0000
0001
0000
0100
0000
0001
0100
0001
0000
1000
0000
0010
0100
0010
0000
,
1000
0000
0001
0000
1000
0000
0100
0000
0100
0000
0010
0000
0110
0000
0010
0100
,
0010
0000
0110
0000
0001
0000
1000
0001
1000
0000
0100
0000
0010
0001
0010
0000
,
0001
0000
1000
0000
0001
0000
0100
0001
0100
0000
0001
0000
1000
0010
1000
0000
,
0100
0000
0100
0000
0010
0000
0001
0010
0100
0000
1000
0000
0010
0100
0001
0000
,
1000
0010
0100
0100
0001
0001
1000
1000
,
0010
0000
0100
0000
0001
0000
0000
1000
0100
0000
1100
0000
0000
0001
0100
0000
,
0101
0000
0000
0100
0010
0000
0000
0000
0101
0000
0000
0000
1010
0000
0000
0000
,
0101
0000
0000
1000
0100
0000
0000
0000
0011
0000
0000
0000
1100
0000
0000
0000
,
0011
0000
0000
1000
0001
0000
0000
0000
0110
0000
0000
0000
1001
0000
0000
0000
,
0110
0000
0000
1000
0001
0000
0100
0000
0010
0000
1000
0000
0100
0000
0010
0000
,
0001
0000
1000
0000
0010
0000
0100
0001
0100
0000
0000
0000
0101
0000
0001
0000
,
1000
0000
0010
1000
0010
0000
0000
0000
1010
0000
0000
0000
1000
0000
0010
0000
,
1000
0000
0001
1000
0100
0000
0000
0000
1100
0000
0000
0000
0100
0000
1000
0000
,
0100
0000
0010
0001
1000
0000
0000
0000
0110
0000
0000
0000
1001
0000
0000
0000
,
0000
1100
0000
1001
0000
0101
0110
0000
,
1010
1001
0000
0000
,
0000
0000
1000
2000
0000
0000
0000
0000
0000
3000
0000
0000
,
0000
0000
0000
0001
0002
0000
0003
0000
2000
0000
3000
0000
0002
0000
0003
0000
,
1000
0000
0000
0000
0000
0000
0000
0010
0000
0000
0000
0100
0000
0000
0000
0000
0002
0000
0000
0000
0000
0000
0000
0000
0000
0000
0000
0000
0000
0000
0000
0000
0000
0000
0000
0000
0000
0000
0000
0000
0000
0000
0000
0000
0003
0000
0000
0000
0000
0000
0000
0000
0000
0000
0000
0000
0000
0000
0000
0000
0000
0000
0000
0000
;

//--------------- dance-double - HellKiteChaos ----------------
#NOTES:
     dance-double:
     HellKiteChaos:
     Challenge:
     14:
     0,0,0,0,0:
00000000
00000000
00000000
00000000
,
00000000
00000000
00000000
00000000
,
00000000
00000000
00000000
00000000
,
00000000
00000000
00000000
00000000
00000000
00000000
00000000
00000000
00000000
00000000
00000000
00000000
00000000
00000000
00022000
00033000
,
00000000
00000000
00000000
00000000
00001000
00000000
01000000
00000000
01000000
00000000
00100000
00000000
10000000
00100000
10000000
00000000
,
10100000
00000000
00000000
00000000
00000000
00000000
00100000
00000000
00100000
00000000
10000000
00000000
00010000
01000000
00010000
00000000
,
01010000
00000000
00000000
00000000
00000000
00000000
10000000
00000000
10000000
00000000
00100000
00000000
01000000
00100000
01000000
00000000
,
01100000
00100000
10000000
01000000
00010000
00001000
00010000
00000010
,
00001010
00000000
00001001
00000000
00000000
00000000
00000001
00000000
00000010
00000000
00000010
00000000
00000100
00001000
00000100
00000000
,
00001100
00000000
00000000
00000000
00000000
00000000
00001000
00000000
00000010
00000000
00000100
00000000
00000001
00000100
00000001
00000000
,
00000101
00000000
00000000
00000000
00000000
00000000
00000001
00000000
00001000
00000000
00000010
00000000
00001000
00000001
00001000
00000000
,
00001001
00000001
00000101
00000100
00000100
00000010
00010000
00010000
,
00011000
00000000
00011000
00000000
00000000
00000000
00001000
00000000
00100000
00001000
00100000
00000000
00010000
00000000
01000000
00010000
,
01000000
00000000
00000000
00000000
00000000
00000000
00100000
00000000
10000000
00100000
10000000
00000000
00010000
00000000
00100000
00001000
,
00100000
00000000
00001000
00000000
00010000
00000000
00001000
00000000
00000100
00000010
00000100
00000000
00000001
00000000
00001000
00000001
,
00001000
00000001
00001001
00001000
00000100
00000010
00001000
00010000
,
00011000
00000000
00011000
00000000
00000000
00000000
00001000
00000000
00010000
00100000
01000000
00000000
10000000
00000000
00100000
10000000
,
00100000
00000000
10000000
00000000
10000000
00000000
00010000
00000000
10000000
01000000
00100000
00000000
00010000
00000000
00100000
00001000
,
00010000
00000000
00001000
00000000
00001000
00000000
00010000
00000000
00000010
00001000
00000010
00000000
00000100
00000000
00000001
00001000
,
00000001
00000010
00001100
00000100
00000100
00010100
00010000
00010000
,
00001000
00010000
00002000
00020000
00000000
00000000
00000000
00000000
00000000
00000000
00000000
00000000
00000000
00000000
00000000
00000000
,
00000000
00000000
00000000
00000000
,
00000000
00000000
00000000
00000000
,
00033000
00000000
00000000
00010000
00000000
00010000
00000010
00000000
00000010
00000100
00000000
00000100
,
00000001
00000000
00000001
00000010
00000000
00000010
00001000
00000000
00001000
00010000
00000000
00010000
,
01000000
00000000
01000000
10000000
00000000
10000000
00010000
00000000
00010000
10000000
00000000
10000000
,
00100000
00000000
00100000
01000000
00000000
01000000
00001000
00000000
00001000
00010000
00000000
00010000
,
00000100
00000000
00000100
00000010
00000000
00000010
00000001
00000000
00000001
00000010
00000000
00000010
,
00000001
00000000
00000001
00000100
00000000
00000100
00000010
00000000
00000010
00001000
00000000
00001000
,
00000010
00000000
00000010
00010000
00000000
00010000
00001000
00000000
00001000
00010000
00000000
00010000
,
00001000
00000000
00001000
00100000
00000000
00100000
01000000
00000000
01000000
10000000
00000000
10000000
,
00010000
00000000
00000000
00000000
00010000
00000000
10000000
00000000
00000000
00000000
00010000
10000000
00010000
00000000
00000000
00000000
10000000
00000000
00100000
00000000
00000000
00000000
01000000
00010000
,
01000000
00000000
00000000
00000000
00001000
00000000
00100000
00000000
00000000
00000000
00010000
00100000
00010000
00000000
00000000
00000000
00100000
00000000
00001000
00000000
00000000
00000000
00010000
00001000
,
00010000
00000000
00000000
00000000
00000100
00000000
00000010
00000000
00000000
00000000
00000001
00000010
00000001
00000000
00000000
00000000
00001000
00000000
00000100
00000000
00000000
00000000
00000010
00000100
,
00000010
00000000
00000000
00000000
00000100
00000000
00001000
00000000
00000000
00000000
00000001
00000100
00000001
00000000
00000000
00000000
00001000
00000000
00000010
00000000
00000000
00000000
00001000
00000000
,
00000010
00000000
00001000
00000100
00000010
00000001
00001000
00000100
00000010
00000001
00000000
00000000
,
00000000
00000000
00000000
00001000
00000100
00010000
00000010
00001000
00000100
00010000
00000000
00000000
,
00000000
00000000
00000000
00001000
00100000
00010000
01000000
00001000
00010000
00000010
00001000
00000100
,
00010000
00001000
01000000
00100000
10000000
01000000
00010000
00001000
00010000
00001000
00000000
00000000
,
00000000
00000000
00010000
00001000
00001000
00010000
00001000
00001000
,
00000100
00000100
00000110
00000100
00000101
00000001
00001001
00000001
,
00000010
00001000
00010000
00001000
00010000
00000100
00010000
00001000
,
00100000
00000000
00010000
00000000
10000000
00000000
01000000
00000000
00100000
00000000
00010000
00000000
10000000
00000000
00010000
10000000
,
00010000
00000000
10010000
00000000
00010000
00000000
10000000
00010000
10000000
00000000
01000000
00000000
00100000
00010000
00100000
00000000
,
00010000
00000000
10000000
00000000
00010000
00000000
01000000
00010000
01000000
00000000
00001000
00000000
00010000
00001000
00010000
00000000
,
00000010
00000000
00001000
00000000
00000001
00000000
00000100
00000010
00001000
00000000
00000001
00000000
00000010
00000100
00001000
00000000
,
00000001
00000010
00001000
00010000
00001000
00000100
00001000
00010000
,
00001000
00000000
00010000
00000000
00011000
00000000
00000000
00001000
01000000
00000000
01010000
00000000
00000000
00100000
10000000
00000000
,
10100000
00000000
00000000
10000000
01000000
00000000
00000000
00000000
01010000
00000000
00000000
00000000
00011000
00000000
00000000
00000000
,
00001100
00000000
00000000
00000010
00000001
00000000
00000000
00000000
00000011
00000000
00000000
00000000
00001001
00000000
00000000
00000000
,
00001010
00000000
00000000
00000010
00010000
00000000
00000000
00000000
00010010
00000000
00000000
00000000
00011000
00000000
00000000
00000000
,
00101000
00000000
00000000
00100000
00010000
00000000
01000000
00000000
00100000
00000000
10000000
00000000
01000000
00000000
00010000
00000000
,
00001000
00000000
00010000
00000000
00000010
00000000
00000000
00000100
00000010
00000000
00000000
00000000
00000110
00000000
00000000
00000000
,
00011000
00000000
00000000
00100000
01000000
00000000
00000000
00000000
01100000
00000000
00000000
00000000
00011000
00000000
00000000
00000000
,
00000110
00000000
00000000
00001000
00000001
00000000
00000000
00000000
00001001
00000000
00000000
00000000
00011000
00000000
00000000
00000000
,
10010000
00000000
00000000
10000000
00010000
00000000
00000000
00000000
01100000
00000000
00000000
00000000
10010000
00000000
00000000
00000000
,
00000000
10100000
00000000
11000000
00000000
00110000
00110000
00000000
,
00011000
00011000
00000000
00000000
,
00000000
00000000
00001000
00002000
00000000
00000000
00000000
00000000
00000000
00003000
00000000
00000000
,
00000000
00000000
00000000
00010000
00020000
00000000
00030000
00000000
00000020
00000000
00000030
00000000
00002000
00000000
00003000
00000000
,
00000001
00000000
00000000
00000000
00000000
00000000
00000000
00000100
00000000
00000000
00000000
00000001
00000000
00000000
00000000
00000000
00000020
00000000
00000000
00000000
00000000
00000000
00000000
00000000
00000000
00000000
00000000
00000000
00000000
00000000
00000000
00000000
00000000
00000000
00000000
00000000
00000000
00000000
00000000
00000000
00000000
00000000
00000000
00000000
00000030
00000000
00000000
00000000
00000000
00000000
00000000
00000000
00000000
00000000
00000000
00000000
00000000
00000000
00000000
00000000
00000000
00000000
00000000
00000000
;
