#TITLE:THE WHISTLE SONG (Blow My Whistle Bitch);
#SUBTITLE:;
#ARTIST:DJ ALIGATOR PROJECT;
#TITLETRANSLIT:;
#SUBTITLETRANSLIT:;
#ARTISTTRANSLIT:;
#GENRE:;
#CREDIT:;
#MUSIC:THE WHISTLE SONG (Blow My Whistle Bitch).mp3;
#BANNER:THE WHISTLE SONG (Blow My Whistle Bitch).png;
#BACKGROUND:THE WHISTLE SONG (Blow My Whistle Bitch)-bg.png;
#CDTITLE:;
#SAMPLESTART:0.000;
#SAMPLELENGTH:0.000;
#SELECTABLE:YES;
#OFFSET:-0.047;
#BPMS:0.000=140.000;
#STOPS:36.000=1.286
,169.000=1.286
;
#DISPLAYBPM:140.000;
#BGCHANGES:;
#FGCHANGES:;

//--------------- dance-single - HellKiteChaos ----------------
#NOTES:
     dance-single:
     HellKiteChaos:
     Challenge:
     12:
     0,0,0,0,0:
0000
0000
0000
0000
,
0000
0000
0000
0000
,
0000
0000
0000
0000
,
1002
0000
0203
0320
2030
3200
0300
0000
,
0000
2000
3200
0302
0203
0000
2300
0000
,
3002
0000
0203
0320
2030
3200
0300
0000
,
0000
2000
3020
0032
0023
2030
3200
0000
,
2300
0000
3020
0230
0320
0230
0300
0000
,
0010
0100
0001
1000
0010
0100
0001
0000
,
1001
0000
2000
0000
3200
2300
3020
2030
,
3000
0200
0000
0320
0032
0203
0302
0023
,
0032
0000
2003
0000
3002
0203
0320
0230
,
0300
0002
0000
0023
0032
0023
0230
2300
,
3002
0000
2003
0000
3002
0023
2030
3020
,
0030
0002
0000
2003
3020
0230
0320
0230
,
0302
0000
2003
0000
3200
0320
0230
2300
,
3000
0002
0000
0203
0320
2030
3002
0000
,
2003
0000
0000
0000
3001
0000
0001
0000
0001
0000
0001
0000
1000
0001
1000
0001
,
1000
0001
1000
0001
2000
0000
3000
0100
0010
0000
0010
0000
0002
0000
0003
0100
,
0010
0000
0010
0000
2000
0000
3000
0100
0010
0000
0010
0000
0001
1000
0100
0000
,
1000
0001
0100
0000
0020
0000
0030
1000
0001
0000
0001
0000
0020
0000
0030
0001
,
1000
0000
1000
0000
0020
0000
0030
1000
0001
0000
0001
0000
1000
0001
0100
0000
,
0010
1000
0001
0000
2000
0000
3000
0100
1000
0000
0001
0000
0020
0000
0030
0001
,
0100
0000
0010
0000
2000
0000
3000
0010
0100
0000
0001
0000
1000
0010
0100
0000
,
0001
0010
0100
0000
1000
0000
0010
0000
1000
0000
0010
0000
0100
0000
0001
0000
,
0100
0001
1000
0100
0001
0100
1000
0010
,
0100
0001
0102
0000
2003
0000
3100
1000
,
0100
0010
0001
0010
0100
1000
0100
0010
,
0001
0010
0012
0000
2003
0000
3010
1000
,
0010
0100
0001
0100
0010
1000
0010
0100
,
0001
0100
0102
0000
2003
0000
3100
1000
,
0100
0010
0001
0010
0100
1000
0100
0010
,
0001
0100
2010
0000
3002
0000
0103
0001
,
1000
0001
2000
0000
0010
0000
0001
0000
,
3100
0000
0000
0000
1000
0000
0100
0000
1000
0000
0001
0100
0001
0000
0100
0000
,
0001
0000
1000
0010
1000
0000
0010
0000
1000
0000
0001
0010
0001
0000
0010
0000
,
0001
1000
2100
0000
3002
0000
0103
0001
,
1000
0000
0010
1000
0010
0000
1000
0000
0001
0000
0100
0001
0100
0000
0001
0000
,
1000
0100
0120
0000
0032
0000
1003
0001
,
0100
0000
0001
1000
0010
0000
1000
0000
0001
0000
1000
0001
0100
0000
0001
0000
,
1000
1000
1002
0000
2003
0000
3100
0010
,
0001
1000
0000
0100
0000
0010
0000
0001
,
1000
0000
1001
0000
0002
0000
0023
0032
,
0203
0302
0003
0020
0000
0230
2300
3020
,
2030
3200
2300
0000
3002
0000
2003
3020
,
0230
0320
0030
2000
0000
3200
2300
3200
,
0320
0032
2003
0000
3002
0000
2003
3200
,
0302
0203
0300
2000
0000
3002
0203
0320
,
0230
0320
2030
0000
3002
0000
0023
0230
,
0320
0032
0003
2000
0000
3020
0230
0302
,
2003
3002
1003
0000
;

//--------------- dance-double - HellKiteChaos ----------------
#NOTES:
     dance-double:
     HellKiteChaos:
     Challenge:
     12:
     0,0,0,0,0:
00000000
00000000
00000000
00000000
,
00000000
00000000
00000000
00000000
,
00000000
00000000
00000000
00000000
,
00021000
00000000
00032000
02003000
03200000
20300000
30000000
00000000
,
00000000
00200000
20300000
30020000
00230000
00000000
02300000
00000000
,
23000000
00000000
30020000
02030000
03002000
00023000
00030000
00000000
,
00000000
00002000
00023000
00030200
00002300
00003200
00000320
00000000
,
00000032
00000000
00000023
00000032
00002003
00003200
00000300
00000000
,
00000100
00010000
00001000
01000000
00100000
10000000
01000000
00100000
,
10010000
00000000
10020000
00000000
20030000
32000000
03020000
00032000
,
00003000
00000020
00000000
00000032
00000203
00002300
00023000
00230000
,
20300000
00000000
32000000
00000000
03200000
00320000
02030000
03200000
,
00300000
02000000
00000000
03200000
00320000
00032000
00003200
00000302
,
00000023
00000000
00000230
00000000
00002300
00003020
00002030
00003200
,
00000300
00000020
00000000
00000230
00002300
00003020
00000230
00002300
,
00023000
00000000
00032000
00000000
00203000
02300000
03020000
00032000
,
00000000
00023000
00000000
00032000
00023000
00032000
00023000
00000000
,
00032000
00000000
00000000
00000000
00010000
00000000
00010000
00000000
00010000
00000000
00013000
00000000
00010000
00001000
00010000
00001000
,
00010000
00001000
00010000
00001000
00010000
00000000
00000100
00000000
00001000
00000000
00000010
00000000
00010000
00000000
00000100
00000000
,
00001000
00000010
00010000
00000100
00001000
00000010
00000100
00001000
,
00010000
00001000
00100000
01000000
00010000
00001000
00100000
01000000
,
00010000
00001000
00100000
01000000
00010000
00001000
00010000
00000010
,
00010000
00001000
01000000
00100000
00010000
00001000
01000000
00100000
,
00010000
00001000
01000000
00100000
00010000
00001000
00010000
01000000
,
00010000
00001000
00010000
00001000
00000100
00000010
00010000
00001000
,
00000100
00000010
00010000
00001000
00000100
00000010
00010000
00001000
,
00010000
00001000
00021000
00000000
00032000
00000000
01003000
00100000
,
00010000
00100000
01000000
00100000
00010000
00100000
01000000
00010000
,
00100000
01000000
21000000
00000000
30020000
00000000
00130000
01000000
,
00010000
01000000
00100000
01000000
00010000
01000000
10000000
00100000
,
01000000
00010000
02010000
00000000
03002000
00000000
00013000
00001000
,
00000100
00001000
00010000
00001000
00000100
00001000
00010000
00001000
,
00000100
00000001
00000102
00000000
00002003
00000000
00003002
00000000
,
00000023
00000130
00000100
00000100
,
00000100
00000000
00000100
00000010
00000001
00000100
00000010
00001000
,
00000100
00010000
00001000
00100000
00010000
10000000
01000000
00100000
,
00010000
01000000
01010000
00000000
10100000
10000000
00100000
00010000
,
00100000
10000000
00100000
01000000
00001000
00010000
00000100
00001000
,
00000010
00000100
00000101
00000000
00000011
00000001
00000010
00001000
,
00000010
00000001
00000010
00001000
00010000
01000000
10000000
01000000
,
00100000
00010000
00110000
00000000
11000000
01000000
10000000
00100000
,
01000000
00010000
00000000
00010000
00000000
00010000
00000000
00010000
,
10000000
00010000
10010000
00000000
00002001
00000000
00003002
00000023
,
00000230
00000320
00000030
00000200
00000000
00000320
00000230
00002300
,
00003200
00020300
00032000
00000000
02003000
00000000
03200000
02300000
,
03200000
20300000
30000000
00020000
00000000
02030000
03002000
00023000
,
02030000
23000000
30200000
00000000
02300000
00000000
03200000
00320000
,
00032000
00023000
00030000
00200000
00000000
00320000
00032000
00003200
,
00002300
00023000
00032000
00000000
00023000
00000000
00032000
00023000
,
02030000
03020000
00030000
00002000
00000000
00003020
00000032
00000023
,
00002030
00013000
00011000
00000000
;
